Argerich & Kremer & Maisky -《肖斯塔科维奇·柴科夫斯基·钢琴三重奏》(Shostakovich Tchaikovsky Trios)[APE]

Argerich & Kremer & Maisky -《肖斯塔科维奇·柴科夫斯基·钢琴三重奏》(Shostakovich Tchaikovsky Trios)[APE]
  • 片  名  Argerich & Kremer & Maisky -《肖斯塔科维奇·柴科夫斯基·钢琴三重奏》(Shostakovich Tchaikovsky Trios)[APE]
  • 简  介  发行时间: 1999年
  • 类  别  音乐
  • 小  类  古典音乐


  • 详细介绍专辑英文名: Shostakovich Tchaikovsky Trios专辑中文名: 肖斯塔科维奇·柴科夫斯基·钢琴三重奏艺术家: Argerich
    Kremer
    Maisky资源格式: APE发行时间: 1999年地区: 美国简介:
    专辑介绍:
    钢琴 Martha Argerich 阿格里奇
    小提琴 Gidon Kremer 克雷默
    大提琴 Mischa Maisky 麦斯基
    实在找不到中文介绍... 只能看看我的翻译水平了,大家见笑.
    1998年5月,为了纪念Argerich和Kremer的经理人Reinhard Paulsen的逝世,三位大师Martha Argerich,Gidon Kremer和Mischa Maisky在日本东京举行了一场三重奏音乐会.两首曲目在俄罗斯的三重奏曲目中又都占有重要的地位,而且由于音乐会的特殊意义,它们均选自肖斯塔科维奇和柴科夫斯基为纪念亡友而写的作品,于是也让整张专辑的价值更加宝贵.这场演出之后他们就留下了 黄金三重奏 的美誉,但是无论这个称号是为什么而得来并不重要,因为这是三位音乐家第一次走到了一起并留下录音,而且在此之后他们也有更多合作的专辑相继问世.
    In Japan they call it the Golden Trio - and any recording that brings together Martha Argerich, Gidon Kremer and Mischa Maisky for a concert of works by Tchaikovsky and Shostakovich is guaranteed to be golden. Whether the three busy soloists, who are also good friends, owe this nickname to the unique quality of their musical collaboration or to the fact that their appearances together are so rare is beside the point.
    This is the first time the three artists - each of whom has enjoyed a long individual association with the Yellow Label - can be heard as a trio on a Deutsche Grammophon disc.
    The occasion for the recording was a sad one. Argerich, Kremer and Maisky met in Tokyo in May 1998 to honour the memory of the impresario Reinhard Paulsen, who, as Argerich s and Kremer s concert agent, worked hard to bring the Golden Trio before the public. The main works featured in the concert were both written by the composers for deceased friends.
    Tchaikovsky composed his Piano Trio in A minor, op.50 in memory of his friend Nikolay Rubinstein in 1881-1882. Shostakovich s Piano Trio No. 2 in E minor was composed after the death of one of his closest friends, Ivan Sollertinsky, in 1944. It was with the latter work that the trio introduced itself in concert in Verbier in 1997.
    转发:来源自网络搜索,感谢原创者的无私分享!
  • Argerich & Kremer & Maisky -《肖斯塔科维奇·柴科夫斯基·钢琴三重奏》(Shostakovich Tchaikovsky Trios)[APE]_large

精选评论

稍有噪声,几乎不影响聆听,演绎一流,可听性也很高。谢过楼主。
就是封面封底与信息不齐不方便使用,好碟,谢谢!
感謝樓主, 辛苦
好专辑
可以下吧,可以下吧……
载下来了,谢LZ!!

Cue文件最后的法语有一点儿小乱码……不过纯粹是我鸡蛋里挑骨头的~
话说……那是法语吧……
PERFORMER "TchaikovskyShostakovich"
TITLE "钢琴三重奏"
FILE "钢琴三重奏.ape" WAVE
TRACK 01 AUDIO
TITLE "【Applause】"
PERFORMER "ArgerichKremerMaisky"
INDEX 01 00:00:00
TRACK 02 AUDIO
TITLE "【Shostakovich】Piano Trio No.2, Op.67 1. Andante - Moderato - Poco più mosso "
PERFORMER "ArgerichKremerMaisky"
ISRC DEF059803371
INDEX 01 00:22:60
TRACK 03 AUDIO
TITLE "【Shostakovich】2. Allegro con brio"
PERFORMER "ArgerichKremerMaisky"
ISRC DEF059803372
INDEX 01 08:21:60
TRACK 04 AUDIO
TITLE "【Shostakovich】3. Largo"
PERFORMER "ArgerichKremerMaisky"
ISRC DEF059803373
INDEX 01 11:20:60
TRACK 05 AUDIO
TITLE "【Shostakovich】4. Allegretto - Adagio"
PERFORMER "ArgerichKremerMaisky"
ISRC DEF059803374
INDEX 01 17:14:25
TRACK 06 AUDIO
TITLE "【Tchaikovsky】Piano Trio in A minor, Op.50 1. Pezzo elegiaco (Moderato assai - Allegro giusto)"
PERFORMER "ArgerichKremerMaisky"
ISRC DEF059830601
INDEX 01 29:26:00
TRACK 07 AUDIO
TITLE "【Tchaikovsky】2. A Tema con variazioni: Andante con moto"
PERFORMER "ArgerichKremerMaisky"
ISRC DEF059830602
INDEX 01 47:55:10
TRACK 08 AUDIO
TITLE "【Tchaikovsky】Var. I: L'istesso tempo"
PERFORMER "ArgerichKremerMaisky"
ISRC DEF059830603
INDEX 01 48:53:12
TRACK 09 AUDIO
TITLE "【Tchaikovsky】Var. II: Più mosso"
PERFORMER "ArgerichKremerMaisky"
ISRC DEF059830604
INDEX 01 49:38:16
TRACK 10 AUDIO
TITLE "【Tchaikovsky】Var. III: Allegro moderato"
PERFORMER "ArgerichKremerMaisky"
ISRC DEF059830605
INDEX 01 50:09:70
TRACK 11 AUDIO
TITLE "【Tchaikovsky】Var. IV: L'istesso tempo"
PERFORMER "ArgerichKremerMaisky"
ISRC DEF059830606
INDEX 01 50:58:05
TRACK 12 AUDIO
TITLE "【Tchaikovsky】Var. V: L'istesso tempo"
PERFORMER "ArgerichKremerMaisky"
ISRC DEF059830607
INDEX 01 51:56:54
TRACK 13 AUDIO
TITLE "【Tchaikovsky】Var. VI: Tempo di valse"
PERFORMER "ArgerichKremerMaisky"
ISRC DEF059830608
INDEX 01 52:34:50
TRACK 14 AUDIO
TITLE "【Tchaikovsky】Var. VII: Allegro moderato"
PERFORMER "ArgerichKremerMaisky"
ISRC DEF059830609
INDEX 01 54:46:50
TRACK 15 AUDIO
TITLE "【Tchaikovsky】Var. VIII: Fuga (Allegro moderato)"
PERFORMER "ArgerichKremerMaisky"
ISRC DEF059830610
INDEX 01 55:55:12
TRACK 16 AUDIO
TITLE "【Tchaikovsky】Var. IX: Andante flebile, ma non tanto"
PERFORMER "ArgerichKremerMaisky"
ISRC DEF059830611
INDEX 01 58:12:00
TRACK 17 AUDIO
TITLE "【Tchaikovsky】Var. X: Tempo di Mazurka"
PERFORMER "ArgerichKremerMaisky"
ISRC DEF059830612
INDEX 01 61:30:25
TRACK 18 AUDIO
TITLE "【Tchaikovsky】Var. VI: Moderato"
PERFORMER "ArgerichKremerMaisky"
ISRC DEF059830613
INDEX 01 62:57:40
TRACK 19 AUDIO
TITLE "【Tchaikovsky】2. B Variazione finale e Coda (Allegretto risoluto e con fuoco - [Coda] Andante con moto"
PERFORMER "ArgerichKremerMaisky"
ISRC DEF059830614
INDEX 01 65:14:62
TRACK 20 AUDIO
TITLE "【Tchaikovsky】2. - [Coda] Lugubre"
PERFORMER "ArgerichKremerMaisky"
ISRC DEF059830615
INDEX 01 71:57:30
TRACK 21 AUDIO
TITLE "【Encore】Peter Kiesewetter:Tango pathétique"
PERFORMER "ArgerichKremerMaisky"
ISRC DEF059803380
INDEX 01 76:58:60

---------------------------------------------------------
试下这个~File根据文件名自己改
感谢分享!!