ZARD -《Promised You》33th单曲[APE]

ZARD -《Promised You》33th单曲[APE]
  • 片  名  ZARD -《Promised You》33th单曲[APE]
  • 简  介  音乐风格: 摇滚发行时间: 2000年11月15日地区: 日本语言: 日语
  • 类  别  音乐
  • 小  类  日韩音乐


  • 详细介绍专辑中文名: Promised You歌手: ZARD音乐风格: 摇滚资源格式: APE版本: 33th单曲发行时间: 2000年11月15日地区: 日本语言: 日语简介: 专辑介绍:
    33rd SINGLE「promised you」
    编号:JBCJ-1032(B-Gram RECOREDS)
    发售日:2000年11月15日
    种类:J-POP
    唱片公司:B-Gram RECOREDS
    排名:公信榜初登场第6位,最高第6位,TOP100-5次
    销量:发售第一周80,620、累计115,360
    ZARD单曲补完计划继续~
    想来想去,还是加上了这个画蛇添足的介绍,免得某些童鞋……
    ZARD,主唱坂井泉水,其他成员不详。
    柯南的那首《转动命运之轮》就是ZARD的作品。认识了没?告诉你,这首经典名曲在ZARD的歌曲销量排行里还排在20名开外。
    她是日本史上第七位销量的歌手(截至2008年11月付-4030.3万枚) 拥有1位曲最多歌手(10作)
      她是90年代销量最高的女歌手,是全日本最有影响力的歌手
      她是TOP10作拥有最多歌手(42作) 她是唯一能够和X-JAPAN相提并论的日本国民级歌手
      她在93-01年间连续近10年时间获得日本官方权威音乐的オリコン投票的最佳女歌手与女艺人称号,这是在日本音乐史上绝无仅有的事情,只有坂井泉水(ZARD)的神话。
      在99年ZARD被称幽灵乐团的同时,《AERA》杂志的票选-民众最想见到的人,ZARD以5720万的票数排名第二,仅次于天皇明仁,作为一个艺人能登上这个票选的第二,这也是日本史上的神话。
    2007年5月27日,泉水逝世,在她逝世后的第一周,发生了日本音乐史上最为恐怖和传奇的事情。ZARD的最后作品,《Golden Best ZARD 15th Anniversary》从300圈外攻占排行榜冠军,并且在07-08年间连续79周在榜,销量超过94万。如此,加上06年买出的92万,这张专辑也是一张百万专辑。而且在本周,ZARD发行的所有专辑(迷你除外),全部进入100前榜单。单曲榜上,ZARD发行的最后单曲《点燃心火》初10位,最高9位。直接进入第3位,排行榜上有20多首单曲入榜。包括出道单曲Good-bye My Loneliness(13位),93年发行的名曲《不要认输》(4位)等。一时间纵观榜单,基本上全都写着ZARD。这是之前没有任何一个歌手可以达到的高度。
    ~介绍完毕~
    这张单曲发行之后,主音坂井泉水患了急性病,在专辑「时间の翼」发行之后进行了休养。之后的单曲是在1年半后才发行。
    最高的排名是第6位,是自「负けないで」以来第一次掉出TOP5。
    之前TIE-UP上播放的版本是明石昌夫编曲的。
    「MIND GAMES」之后,第一次没有收录CW曲的KARAOKE。之后发行的单曲也不再收录CW曲的KARAOKE。
    Promised You是一首异乎寻常的温柔的歌曲,多次治愈了我杯具般郁闷的心情。不过还是和Jpop有区别的,当然指的是编曲,还是用摇滚乐的思路来的。
    CW曲是我的大爱。插一句,谁听姐姐的歌不听CW的,你可是在演绎着杯具哦~来听听吧,看是不是可以与其他歌手的主打曲相媲美吧。顺便一提,姐姐的歌词还是一如既往的straight to your heart。我已附上歌词,看看歌词,怀着这种心情再去聆听吧~
    1.promised you
    作词:坂井泉水 作曲:栗林诚一郎 编曲:Cybersound
    缓慢的抒情曲。作曲是「运命のルーレット廻して」以后久违了2年的栗林诚一郎。作曲则是之前为仓木麻衣的「Love, Day After Tomorrow」「Secret of my heart」等曲子编曲的Cybersound第一次担任。
    2.The only truth I know is you
    作词:坂井泉水 作曲・编曲:徳永暁人
    唱出自己心声的POP曲。中间加入了坂井泉水的RAP。最后的尾声十分短。
    3.promised you(オリジナル
  • ZARD -《Promised You》33th单曲[APE]_large

精选评论

EAC 抓取日志文件从11. 十二月 2007, 23:18 用于 CD
未知艺术家 / 未知标题

使用驱动器 :TSSTcorpCD/DVDW TS-H652M Adapter: 0 ID: 0
读取模式 :不使用 C2,使用精确流, 禁用缓存的安全模式
读取偏移校正:0
读取 Lead-In 和 Lead-Out : 否

所用输出模式:内部 WAV 函数
44.100 Hz;16 Bit;立体声

其他选项 :
用静音填充抓取中丢失偏移的采样 : 是
去除首尾静音块 : 否
已安装外部 ASPI 接口


范围状态及错误
已选择范围
文件名 C:Documents and SettingslairunzhangMy DocumentsCDImage.wav

峰值电平 98.5 %
范围质量 100.0 %
CRC 914145AA
复制成功

没有错误发生

状态报告结尾
PERFORMER "ZARD"
TITLE "Promised You"
CATALOG 4996857000811
FILE "ZARD.-.[Promised You].单曲.(APE).ape" WAVE
TRACK 01 AUDIO
TITLE "Promised You"
PERFORMER "ZARD"
ISRC JPC400001106
INDEX 01 00:00:00
TRACK 02 AUDIO
TITLE "The Only Truth I Know Is You"
PERFORMER "ZARD"
ISRC JPC400001107
INDEX 00 05:00:30
INDEX 01 05:04:07
TRACK 03 AUDIO
TITLE "Promised You (Instrumental)"
PERFORMER "ZARD"
ISRC JPC400001108
INDEX 00 10:12:62
INDEX 01 10:15:15
promised you

土曜には珍しく 人通りが少ない
いつからか 不安な雨が降る
あの顷の思い出が怀かしい
君は深く 眠っていたよね

恋がいつか爱に变わった
promised you また始めよう
白く烟った宇宙に
みんな笑って生きてる

长い冬が终わって
promised you また始めよう
白く烟った宇宙に
みんな笑って生きてる

どうして君のそばにいると
こんなに口下手になっちゃうんだろう
なんでそんなに速く步くのかな
スピード落としたら 乐なのに

どこに行くのかも判らず あの时
promised you サヨナラしたけど
谁も知らない 二人が孤独だったことなんて
离れて初めて气付いた promised you
そう时は过ぎ
私は何かを守っていた
气になっていただけ

Remember I'll always be true
promised you so special one for me
心の中で动き出す
淡い君との时间

恋がいつか爱に变わった
promised you また始めよう
せつなく烟った宇宙に
みんな笑って生きてる

doyou ni wa mezurashiku hitodoori ga sukunai
itsu kara ka fuan'na ame ga furu
ano koro no omoide ga natsukashii
kimi wa fukaku nemutteita yo ne

koi ga itsuka ai ni kawatta
promised you mata hajimeyou
shiroku kemutta uchuu ni
minna waratte ikiteru

nagaihuyugaowatte
promised you mata hajimeyou
shiroku kemutta uchuu ni
minna waratte ikiteru

doushite kimi no soba ni iru to
konna ni kuchibeta ni nacchaun darou
nande sonna ni hayaku aruku no kana
speed otoshitara raku nanoni

doko ni iku no ka mo wakarazu ano toki
promised you sayonara shita kedo
dare mo shiranai futari ga kodoku datta koto nante
hanarete hajimete kizuita promised you
sou toki wa sugi
watashi wa nanika wo mamotteita
ki ni natteita dake

Remember I'll always be true
promised you so special one for me
kokoro no naka de ugokidasu
awai kimi to no jikan

koi ga itsuka ai ni kawatta
promised you mata hajimeyou
setsunaku kemutta uchuu ni
minna waratte ikiteru

星期六意外地路上人很少
不知从什么时候开始 下起令人不安的雨
那时候的情景让人怀念
你已沉沉地睡去

爱情不知何时变成了爱慕
promised you 让我们重新开始吧
在白烟弥漫的宇宙里
大家都尽情地欢笑活着呢

爱情在漫长的冬天结束
promised you 让我们重新开始吧
在白烟弥漫的宇宙里
大家都尽情地欢笑活着呢

为什么一待在你的身边
我就变得这么的不善言词
为什么非得要走得那么快呢
若稍微放下速度不就能比较轻松些吗

那时也不知道要走向那里
promised you 虽然分手
可别成了谁也不认识 孤独的俩人喔
分离之后首次意识到 promised you
如此地时间流逝
我却只是注意到我到底想要保有些什么而已


Remember I'll always be true
promised you so special one for me
心中流动着
淡出记忆那曾与你共处的时光

爱情不知何时变成了爱慕
promised you 让我们重新开始吧
在白烟弥漫的宇宙里
大家都尽情地欢笑活着呢



The only truth I know is you

You say you'll give me a highway with on one on it

どんなときも明日のこと 梦见ていたいね
足を止めて 一息ついて
みんな思いのまんまに 步んでいるけど
谁でも 爱されたいの

私いつも目の前の何かから逃げてばかり
なのに 贵方に向かって走ってる

☆The only truth I know is you
Leaves are brown now
キツく抱きしめられたら
The only truth I know is you
and I wish you were here
すこし大胆に 一途なこの想い
贵方しか见えないの

はぐれた鸟 群れの彼方 归ってゆくのかな
风に乱れ 发が轧んで
こんなとこで迷子になったら
私は一人で 生きてはゆけない

疲れ切った现实は过ぎてしまえば
ただの思い出 伤迹なんて痛くない

The only truth I know is you
Leaves are brown now
冲动に正直でいたい
The only truth I know is you
Leaves are brown now
すこし大胆に キスしていいのに
朝が来る前に

后悔していた
忘れようとしていた
优しい雨が泪に变わった…

☆Repeat

You say you'll give me a highway with no one on it

Donna toki mo ashita no koto yume mite itai ne
Ashi wo tomete hitoiki tsuite
Minna omoi no manma ni ayunde iru kedo
Dare demo aisaretai no

Watashi itsumo me no mae no nanika kara nigete bakari
Nanoni anata ni mukatte hashitteru

☆The only truth I know is you
Leaves are brown now
Kitsuku dakishimeraretara
The only truth I know is you
And I wish you were here
Sukoshi daitan ni ichizu na kono omoi
Anata shita mienai no

Hagureta tori mure no kanata kaette yuku noka na
Kaze ni midare kami ga kishinde
Konna toko de maiko ni nattara
Watashi wa hitori de ikite wa yukenai

Tsukarekitta genjitsu wa sugite shimaeba
Tada no omoide kizuato nante itakunai

The only truth I know is you
Leaves are brown now
Shoudou ni shoujiki de itai
The only truth I know is you
Leaves are brown now
Sukoshi daitan ni kisu shite ii no ni
Asa ga kuru mae ni

Koukai shite ita
Wasureyou to shite ita
Yasashii ame ga namida ni kawatta...
You say you'll give me a highway with on one on it

无论何时,都希望梦见明天的事情哪!
停下脚步,歇口气
虽然照着每个人的心意步行着
不管是谁,都希望被爱向来

只会逃避眼前的事物
然而我却奔向你

☆我唯一知道的真理是你
现在树叶变黄了
若能紧紧地抱在一起
我唯一知道的真理是你
但愿你在这里
稍微大胆一些,一心一意的想法
只看得到你

离散的鸟儿,能否寻得回到同伴身边的路?
狂风吹袭,头发杂乱
假使迷失在这样的地方的话
我是无法独自一个人生活下去

倘若令人疲惫不堪的现实过去的话
只是回忆与伤痕就不会作痛

我唯一知道的真理是你现在
树叶变黄了
希望坦率地冲动一些
我唯一知道的真理是你
现在树叶变黄了
稍微大胆一些,吻我就好
在早晨来临之前

后悔过
尝试过忘却
温柔的雨变成泪水···
多谢楼主发布
记得07年的时候还看报道说她身患癌症,我们一同祝福她来着……后来就啥也不知道了……
支持个吧~
泉水JJ的必须支持啊。。。。逝去2年半了。。怀念。。。。
永远的泉水姐姐~无限怀念,每次听你的歌都会有想落泪的冲动
泉水姐姐是无论如何也要支持的
泉水姐姐你在天堂还好吗,我们很想念你啊,这么多年来,每当夜幕降临,躺在床上听着你的歌,都会想起你的容颜
To All:谢谢~姐姐在天堂一定过得很好。她本来就属于天堂,我很庆幸,天使曾经在人间。
对,很庆幸,“天使曾经在人间”~
谢谢lz的分享 ~
姐姐最高~~~感谢楼主分享