《美肌一族主题歌》(Bihada Ichizoku)[ED Single-JET★GIRL][Lil'B][附10BK][APE]

《美肌一族主题歌》(Bihada Ichizoku)[ED Single-JET★GIRL][Lil'B][附10BK][APE]
  • 片  名  《美肌一族主题歌》(Bihada Ichizoku)[ED Single-JET★GIRL][Lil'B][附10BK][APE]
  • 简  介  发行时间: 2008年11月26日对白语言: 日语文字语言: 日文
  • 类  别  动漫
  • 小  类  动漫周边


  • 详细介绍中文名: 美肌一族主题歌英文名: Bihada Ichizoku资源格式: APE版本: [ED Single-JET★GIRL][Lil'B][附10BK]发行时间: 2008年11月26日地区: 日本对白语言: 日语文字语言: 日文简介: 【动画简介】
    美肌一族是在可以称为美肌的奥林匹克的WBC(世界·美肌·挑战)中常年获得优胜的名门一族。某个雨天,美肌家的长女17岁的咲与一名男子邂逅了命运的相遇。私奔、嫉妒、名人生活、背叛、还有友情。这个纯爱故事描绘了名人女子咲的成长,直到她找到「真正宝贵的东西」。
    【单曲介绍】
    TVアニメ「美肌一族」エンディングテーマ:JET★GIRL商品番号: DFCL-1511
    メディア: マキシシングルCD
    組枚数: 1
    発売日: 2008/11/26
    価格: 1223円(税込)
    内容
    前作に続く「キミうた」第2弾! 超POP!秋はROCKな気分な一曲 両A面シングル! 【M-1】「願いごと一つキミへ」累計100万ダウンロードを越えた前作「キミに歌ったラブソング」以上の強いメッセージを込めた一曲が完成!“キミうたシリーズ”第2弾!傷付いた親友へ綴った歌詞は、注目必読です。【M-2】「JET★GIRL」ギャルユニットにLil'Bよる超POPブチアゲソング☆年末カラオケはこの一曲で決まり!秋冬はROCKな気分女の子に大人気の『美肌一族』のアニメ主題歌決定!
    【Artist/Cast】
    黒光雄輝 (作曲者)
    Lil'B (アーティスト)
    【收录曲目】
    1. 願いごと一つキミへ
    2. JET★GIRL
    3. 願いごと一つキミへ karaoke
    4. JET★GIRL karaoke
  • 《美肌一族主题歌》(Bihada Ichizoku)[ED Single-JET★GIRL][Lil'B][附10BK][APE]_large

精选评论

MP3版的是偶在VC上第一个被加精的贴,有更新的意义~

TO管理员:
本打算在http://www.VeryCD.com/topics/2722044/更新无损版的,但因为MP3版的原发布包偶已经删除(还有完整的源但不多,待无源时直接删除该帖),最后决定重新发一帖~
囧得完全不敢看动画= =
这广告也做得太广泛了吧……
不知OP如何?
PERFORMER "Lil'B"
TITLE "美肌一族主题歌"
FILE "CDImage.ape" WAVE
TRACK 01 AUDIO
TITLE "1. 願いごと一つキミへ"
PERFORMER "Lil乫B"
ISRC JPN100801481
INDEX 01 00:00:00
TRACK 02 AUDIO
TITLE "2. JET★GIRLL"
PERFORMER "Lil乫B"
ISRC JPN100801482
INDEX 00 05:35:17
INDEX 01 05:37:40
TRACK 03 AUDIO
TITLE "3. 願いごと一つキミへ karaoke"
PERFORMER "Lil乫B"
ISRC JPN100801541
INDEX 00 09:58:31
INDEX 01 10:00:55
TRACK 04 AUDIO
TITLE "4. JET★GIRL karaoke"
PERFORMER "Lil乫B"
ISRC JPN100801542
INDEX 00 15:35:72
INDEX 01 15:38:20
回LS的~
俺也要顶!!
这动画看了一集咱实在很囧,于是就弃了。。。不过歌还不错,抱走鸟。。。多谢LZ共享。。。
第一次发言
拿下了