《美鸟日记原声音乐》(midori)[平野義久][OST][APE]

《美鸟日记原声音乐》(midori)[平野義久][OST][APE]
  • 片  名  《美鸟日记原声音乐》(midori)[平野義久][OST][APE]
  • 简  介  发行时间: 2004年06月23日对白语言: 日语
  • 类  别  动漫
  • 小  类  动漫周边


  • 详细介绍简介:

    【动画简介】:
    春日野美鳥, 一位暗戀著人人聞風喪膽的街頭不良少年- 澤村正治 的高中女生 澤村雖然外表很兇也很會打架,卻一直希望能談一場戀愛過著普通的高中生活. 可是他的名聲都讓別人不敢接近他也因此不但交不到女友也被拒絕了20次...當他大喊著它渴望女友時,他自豪的 死亡右手 竟變成了一位女孩的上半身? 而那位女孩就是...
    【专辑介绍】:
    MELODY (TVアニメ「美鳥の日々」オリジナルサウンドトラック)
    アニメサントラ 商品番号: LACA-5287
    メディア: アルバムCD
    組枚数: 1
    発売日: 2004/06/23
    価格: 3000円(税込)
    アーティスト/ キャスト
    CooRie (演奏者)  アツミサオリ (アーティスト) 
    内容
    大人気TVアニメ「美鳥の日々」のオリジナル・サウンドトラック。原作は週刊少年サンデー人気連載。悪名高い不良の高校生沢村正治の右腕が突然、正治に片思いしていた女の子美鳥になってしまい、2人の奇妙な同居(?)生活を描くラブコメディー。サントラも美鳥の恋心を表現した胸キュンな音楽が盛りだくさん。CooRieの歌うOP アツミサオリの歌うEDのTVサイズも収録。
    【专辑曲目】:
    1. センチメンタル(TV size)
    2. 小さな手紙~オルゴール
    3. 温かいやさしさ
    4. 失恋しまくり
    5. トホホな気分で
    6. 恋の行方
    7. 心の触れ合い
    8. 美鳥的ミニマル
    9. 緊迫の睨み合い
    10. 悪魔の右手
    11. そんな自分がいました
    12. 素直な心で
    13. 悲しみにさようなら
    14. 側にいられる幸せ
    15. やけっぱちの正治
    16. パニックだよ
    17. 定番のドキドキ
    18. 天にも登る気分
    19. 一生懸命な美鳥
    20. やられても立ち上がる
    21. 空虚な間
    22. 綾瀬の妄想
    23. 不器用な優しさ
    24. 嬉しさあまって…
    25. 心配な気持ち
    26. 呆然とした雰囲気
    27. こんな場面って…
    28. ピンチかラッキーか…
    29. 微妙な沈黙
    30. 怯えているかも
    31. 頑張っていこうぜ
    32. 想い出は鮮明に
    33. 二人で行こう
    34. サブタイトル
    35. アイキャッチ-1
    36. アイキャッチ-2
    37. もう少し…もう少し…(TV size)
    【服务器】:Popgo Anime Server ed2k://|server|61.145.112.13|3721|/
    【共享时间】:7*23 除计划关机和断电外一般开机
  • 《美鸟日记原声音乐》(midori)[平野義久][OST][APE]_large

精选评论

没资源吖
有没有资源吖~拜托
骗人的
下这个资源并且用FOOBAR播放提示CUE出错的朋友注意了!!
我把正确的CUE代码贴出来了..自己复制下吧

CATALOG 4540774502875
TITLE "美鳥の日々 オリジナルサウンドトラック - melody"
FILE "CDImage.ape" WAVE
TRACK 01 AUDIO
TITLE "センチメンタル(TV size)"
PERFORMER "CooRie"
ISRC JPI100400573
INDEX 01 00:00:00
TRACK 02 AUDIO
TITLE "小さな手紙~オルゴール"
PERFORMER "rino"
ISRC JPI100400574
INDEX 00 01:30:68
INDEX 01 01:34:07
TRACK 03 AUDIO
TITLE "温かいやさしさ"
PERFORMER "平野義久"
ISRC JPI100400575
INDEX 00 03:04:64
INDEX 01 03:08:45
TRACK 04 AUDIO
TITLE "失恋しまくり"
PERFORMER "平野義久"
ISRC JPI100400576
INDEX 00 05:10:18
INDEX 01 05:13:55
TRACK 05 AUDIO
TITLE "トホホな気分で"
PERFORMER "平野義久"
ISRC JPI100400577
INDEX 00 07:06:19
INDEX 01 07:09:62
TRACK 06 AUDIO
TITLE "恋の行方"
PERFORMER "平野義久"
ISRC JPI100400578
INDEX 00 08:34:71
INDEX 01 08:38:30
TRACK 07 AUDIO
TITLE "心の触れ合い"
PERFORMER "平野義久"
ISRC JPI100400579
INDEX 00 10:38:12
INDEX 01 10:41:52
TRACK 08 AUDIO
TITLE "美鳥的ミニマル"
PERFORMER "平野義久"
ISRC JPI100400580
INDEX 00 12:14:06
INDEX 01 12:17:42
TRACK 09 AUDIO
TITLE "緊迫の睨み合い"
PERFORMER "平野義久"
ISRC JPI100400581
INDEX 00 14:25:72
INDEX 01 14:29:17
TRACK 10 AUDIO
TITLE "悪魔の右手"
PERFORMER "平野義久"
ISRC JPI100400582
INDEX 00 16:17:46
INDEX 01 16:21:10
TRACK 11 AUDIO
TITLE "そんな自分がいました"
PERFORMER "平野義久"
ISRC JPI100400583
INDEX 00 18:32:51
INDEX 01 18:36:27
TRACK 12 AUDIO
TITLE "素直な心で"
PERFORMER "rino"
ISRC JPI100400584
INDEX 00 20:12:36
INDEX 01 20:16:12
TRACK 13 AUDIO
TITLE "悲しみにさようなら"
PERFORMER "平野義久"
ISRC JPI100400585
INDEX 00 21:31:48
INDEX 01 21:35:12
TRACK 14 AUDIO
TITLE "側にいられる幸せ"
PERFORMER "平野義久"
ISRC JPI100400586
INDEX 00 23:18:63
INDEX 01 23:22:45
TRACK 15 AUDIO
TITLE "やけっぱちの正治"
PERFORMER "平野義久"
ISRC JPI100400587
INDEX 00 24:57:23
INDEX 01 25:01:12
TRACK 16 AUDIO
TITLE "パニックだよ"
PERFORMER "平野義久"
ISRC JPI100400588
INDEX 00 26:29:45
INDEX 01 26:33:05
TRACK 17 AUDIO
TITLE "定番のドキドキ"
PERFORMER "平野義久"
ISRC JPI100400589
INDEX 01 27:57:27
TRACK 18 AUDIO
TITLE "天にも登る気分"
PERFORMER "平野義久"
ISRC JPI100400590
INDEX 00 29:13:25
INDEX 01 29:17:07
TRACK 19 AUDIO
TITLE "一生懸命な美鳥"
PERFORMER "rino"
ISRC JPI100400591
INDEX 00 30:39:45
INDEX 01 30:43:00
TRACK 20 AUDIO
TITLE "やられても立ち上がる"
PERFORMER "平野義久"
ISRC JPI100400592
INDEX 00 31:58:09
INDEX 01 32:01:60
TRACK 21 AUDIO
TITLE "空虚な間"
PERFORMER "平野義久"
ISRC JPI100400593
INDEX 00 33:12:52
INDEX 01 33:16:30
TRACK 22 AUDIO
TITLE "綾瀬の妄想"
PERFORMER "平野義久"
ISRC JPI100400594
INDEX 00 34:15:64
INDEX 01 34:19:17
TRACK 23 AUDIO
TITLE "不器用な優しさ"
PERFORMER "平野義久"
ISRC JPI100400595
INDEX 00 35:33:55
INDEX 01 35:37:17
TRACK 24 AUDIO
TITLE "嬉しさあまって··"
PERFORMER "平野義久"
ISRC JPI100400596
INDEX 00 37:38:68
INDEX 01 37:42:10
TRACK 25 AUDIO
TITLE "心配な気持ち"
PERFORMER "平野義久"
ISRC JPI100400597
INDEX 00 39:14:54
INDEX 01 39:20:25
TRACK 26 AUDIO
TITLE "呆然とした雰囲気"
PERFORMER "平野義久"
ISRC JPI100400598
INDEX 00 41:00:16
INDEX 01 41:03:67
TRACK 27 AUDIO
TITLE "こんな場面って··"
PERFORMER "平野義久"
ISRC JPI100400599
INDEX 00 42:24:29
INDEX 01 42:27:05
TRACK 28 AUDIO
TITLE "ピンチがラッキーに··"
PERFORMER "平野義久"
ISRC JPI100400600
INDEX 00 44:59:33
INDEX 01 45:02:57
TRACK 29 AUDIO
TITLE "微妙な沈黙"
PERFORMER "平野義久"
ISRC JPI100400601
INDEX 00 46:09:66
INDEX 01 46:13:72
TRACK 30 AUDIO
TITLE "怯えているのかも"
PERFORMER "平野義久"
ISRC JPI100400602
INDEX 00 47:28:41
INDEX 01 47:32:07
TRACK 31 AUDIO
TITLE "頑張っていこうぜ"
PERFORMER "平野義久"
ISRC JPI100400603
INDEX 00 48:41:59
INDEX 01 48:45:00
TRACK 32 AUDIO
TITLE "想い出は鮮明に"
PERFORMER "平野義久"
ISRC JPI100400604
INDEX 00 50:11:25
INDEX 01 50:14:55
TRACK 33 AUDIO
TITLE "二人で行こう"
PERFORMER "平野義久"
ISRC JPI100400605
INDEX 00 51:44:41
INDEX 01 51:48:25
TRACK 34 AUDIO
TITLE "サブタイトル"
PERFORMER "平野義久"
ISRC JPI100400606
INDEX 00 53:24:22
INDEX 01 53:27:60
TRACK 35 AUDIO
TITLE "アイキャッチ-1"
PERFORMER "平野義久"
ISRC JPI100400607
INDEX 00 53:37:56
INDEX 01 53:41:12
TRACK 36 AUDIO
TITLE "アイキャッチ-2"
PERFORMER "平野義久"
ISRC JPI100400608
INDEX 00 53:49:54
INDEX 01 53:53:22
TRACK 37 AUDIO
TITLE "もう少し···もう少し···(TV size)"
PERFORMER "アツミサオリ"
ISRC JPI100400609
INDEX 00 54:02:65
INDEX 01 54:06:35

其实就是第24.27.28首歌的问号改回双引号啦..