宇多田光(Utada Hikaru) -《无限漫游》(Traveling)单曲[APE]

宇多田光(Utada Hikaru) -《无限漫游》(Traveling)单曲[APE]
  • 片  名  宇多田光(Utada Hikaru) -《无限漫游》(Traveling)单曲[APE]
  • 简  介  发行时间: 2001年地区: 日本语言: 日语
  • 类  别  音乐
  • 小  类  日韩音乐


  • 详细介绍专辑中文名: 无限漫游专辑英文名: Traveling歌手: 宇多田光(Utada Hikaru)资源格式: APE版本: 单曲发行时间: 2001年地区: 日本语言: 日语简介:
    专集介绍:
    档案来源:原创供档
    供档方式:自供档
    VeryCD里面宇多田光的资源ape格式的很少,所以发布这张EP上来
    (以后会陆续发布宇多田的Ape,呵呵)
    宇多田的Ep的质量向来有口皆碑,同一首歌的不同版本各有不同感觉
    一定要用ape来听才爽,建议刻盘在音响上播放,PC的声音实在不敢恭维
    这张专集包含了四个版本的“Traveling”
    第一个是打榜的Traveling,当时宇多田是在消失8个月后复出推出该单曲
    所以宇多田fans对该单曲都是很了解的
    国内也引进了该专集,不需要去买打孔蝶了:)
    第四首是第一首的伴奏版,除去宇多田的歌声外和第一首完全一样
    我个人觉得这个纯伴奏版本比第一个有宇多田歌声的版本还要好听……
    喜欢宇多田的朋友不要错过
    -----------------
    下载不到cue的朋友用以下文本,存为cue文件即可
    引用PERFORMER 宇多田光(Hikaru Utada)
    TITLE Traveling
    FILE 宇多田光.-.[Traveling].单曲.(APE).ape WAVE
    TRACK 01 AUDIO
    TITLE Traveling
    PERFORMER 宇多田光(Hikaru Utada)
    INDEX 01 00:00:00
    TRACK 02 AUDIO
    TITLE Traveling -PLANITb remix-
    PERFORMER 宇多田光(Hikaru Utada)
    INDEX 01 05:17:30
    TRACK 03 AUDIO
    TITLE Traveling -Bahiatronic Mix-
    PERFORMER 宇多田光(Hikaru Utada)
    INDEX 01 15:51:68
    TRACK 04 AUDIO
    TITLE Traveling -Original Karaoke-
    PERFORMER 宇多田光(Hikaru Utada)
    INDEX 01 22:33:45
  • 宇多田光(Utada Hikaru) -《无限漫游》(Traveling)单曲[APE]_large

精选评论

顶!!!尤其是cue文件!!
引用的cue文件并不全阿???
cue文件不全!!!
PERFORMER "宇多田光(Hikaru Utada)"
TITLE "Traveling"
FILE "宇多田光.-.[Traveling].单曲.(APE).ape" WAVE
TRACK 01 AUDIO
TITLE "Traveling"
PERFORMER "宇多田光(Hikaru Utada)"
INDEX 01 00:00:00
TRACK 02 AUDIO
TITLE "Traveling -PLANITb remix-"
PERFORMER "宇多田光(Hikaru Utada)"
INDEX 01 05:17:30
TRACK 03 AUDIO
TITLE "Traveling -Bahiatronic Mix-"
PERFORMER "宇多田光(Hikaru Utada)"
INDEX 01 15:51:68
TRACK 04 AUDIO
TITLE "Traveling -Original Karaoke-"
PERFORMER "宇多田光(Hikaru Utada)"
INDEX 01 22:33:45
感谢LZ的分享辛苦了
終于找到了.. 希望還有資源地說。
拿走了
支持下肥光