林忆莲 -《华纳最出色系列》3CD[APE]

林忆莲 -《华纳最出色系列》3CD[APE]
  • 片  名  林忆莲 -《华纳最出色系列》3CD[APE]
  • 简  介  地区: 香港语言: 普通话,粤语
  • 类  别  音乐
  • 小  类  华语音乐


  • 详细介绍专辑中文名: 华纳最出色系列歌手: 林忆莲资源格式: APE版本: 3CD地区: 香港语言: 普通话,粤语简介:
    专辑名称: 华纳最出色系列-林忆莲
    专辑歌手: 林忆莲
    发行日期: 2007年2月14日
    专辑语种: 国语、粤语
    专辑类型: 中文流行
    唱片公司: 华纳唱片
    压缩比率: 871 Kbps APE
    专辑介绍:
    林忆莲是近20年来最具代表性的实力派女歌手之一。从1983年签约新力唱片到1993年加盟滚石唱片,继而在2000年转入维京唱片,林忆莲的每一步改变都伴随着大量好唱片的推出,在近20年的时间内,林忆莲堪称华语歌坛发片数量最多的歌手之一。在近20年的演唱生涯中林忆莲拥有众多热门歌曲,从早期的《放纵》、《逃离钢筋森林》、《滴汗》、《梦了疯了倦了》到90年代中期的《爱上一个不回家的人》、《野花》、《为你我受冷风吹》、《夜太黑》,一直到近年的《铿锵玫瑰》、《至少还有你》、《纸飞机》等.
    大多都是很经典的歌曲!好像回到8、90年代!
    资源来自中国驴论坛,本人及中国驴音乐共享核心做源1个月,欢迎以任意形式转载!
    播放备注:
    由于音乐文件命名的要求,以及在电驴软件中搜索方便,专辑名称按照规范进行命名!
    但是CUE文件内并没有进行相应的修改!
    如果大家使用千千静听播放软件进行播放,就此文件即可!
    如果大家使用foobar2000,或者刻录碟片,无法正常播放或使用!
    只需用写字板将CUE文件打开,
    将CUE中“FILE CDImage.ape WAVE”红色部分修改成为APE文件名即可!
  • 林忆莲 -《华纳最出色系列》3CD[APE]_large

精选评论

好东西,顶上去。差点把林忆莲给忘了,嘿嘿
很好听的经典老歌
CUE 拼音的???

更正一下:

PERFORMER "Sandy Lam"
TITLE "Sandy Lam Disc 1 of 3"
FILE "CDImage.ape" WAVE
TRACK 01 AUDIO
TITLE "依然"
PERFORMER "Sandy Lam"
FLAGS DCP
INDEX 01 00:00:00
TRACK 02 AUDIO
TITLE "都市心"
PERFORMER "Sandy Lam"
FLAGS DCP
INDEX 00 04:59:19
INDEX 01 04:59:24
TRACK 03 AUDIO
TITLE "破晓"
PERFORMER "Sandy Lam"
FLAGS DCP
INDEX 00 09:33:05
INDEX 01 09:37:68
TRACK 04 AUDIO
TITLE "难忘你"
PERFORMER "Sandy Lam"
FLAGS DCP
INDEX 00 14:35:03
INDEX 01 14:40:04
TRACK 05 AUDIO
TITLE "可以…可是"
PERFORMER "Sandy Lam"
FLAGS DCP
INDEX 00 18:49:53
INDEX 01 18:55:17
TRACK 06 AUDIO
TITLE "微凉"
PERFORMER "Sandy Lam"
FLAGS DCP
INDEX 00 23:42:44
INDEX 01 23:45:30
TRACK 07 AUDIO
TITLE "前尘"
PERFORMER "Sandy Lam"
FLAGS DCP
INDEX 00 27:57:65
INDEX 01 28:04:30
TRACK 08 AUDIO
TITLE "痴缠"
PERFORMER "Sandy Lam"
FLAGS DCP
INDEX 00 33:06:56
INDEX 01 33:08:34
TRACK 09 AUDIO
TITLE "多谢"
PERFORMER "Sandy Lam"
FLAGS DCP
INDEX 00 36:33:45
INDEX 01 36:39:14
TRACK 10 AUDIO
TITLE "匆匆"
PERFORMER "Sandy Lam"
FLAGS DCP
INDEX 00 42:08:61
INDEX 01 42:13:14
TRACK 11 AUDIO
TITLE "哈啰感觉"
PERFORMER "Sandy Lam"
FLAGS DCP
INDEX 00 46:46:05
INDEX 01 46:49:19
TRACK 12 AUDIO
TITLE "微雨扑巴黎"
PERFORMER "Sandy Lam"
FLAGS DCP
INDEX 00 50:29:03
INDEX 01 50:34:22
TRACK 13 AUDIO
TITLE "回家对着妈妈"
PERFORMER "Sandy Lam"
FLAGS DCP
INDEX 00 55:14:28
INDEX 01 55:18:27
TRACK 14 AUDIO
TITLE " 别再靠紧我"
PERFORMER "Sandy Lam"
FLAGS DCP
INDEX 00 58:51:41
INDEX 01 58:57:09
TRACK 15 AUDIO
TITLE "夜生活"
PERFORMER "Sandy Lam"
FLAGS DCP
INDEX 00 63:19:56
INDEX 01 63:25:19



PERFORMER "林忆莲"
TITLE "华纳最出色系列.林忆莲.CD2"
FILE "林忆莲.-.[华纳最出色系列.林忆莲.CD2].专辑.(APE).ape" WAVE
TRACK 01 AUDIO
TITLE "风笑痴"
PERFORMER "Sandy Lam"
FLAGS DCP
INDEX 01 00:00:00
TRACK 02 AUDIO
TITLE "倾斜"
PERFORMER "Sandy Lam"
FLAGS DCP
INDEX 00 04:24:38
INDEX 01 04:27:61
TRACK 03 AUDIO
TITLE "烧"
PERFORMER "Sandy Lam"
FLAGS DCP
INDEX 00 09:14:46
INDEX 01 09:19:51
TRACK 04 AUDIO
TITLE "逃离钢筋森林"
PERFORMER "Sandy Lam"
FLAGS DCP
INDEX 00 12:58:51
INDEX 01 13:03:46
TRACK 05 AUDIO
TITLE "讲多错多"
PERFORMER "Sandy Lam"
FLAGS DCP
INDEX 00 16:37:50
INDEX 01 16:43:48
TRACK 06 AUDIO


PERFORMER "林忆莲"
TITLE "华纳最出色系列.林忆莲.CD3"
FILE "林忆莲.-.[华纳最出色系列.林忆莲.CD3].专辑.(APE).ape" WAVE
TRACK 01 AUDIO
TITLE "推搪"
PERFORMER "Sandy Lam"
FLAGS DCP
INDEX 01 00:00:00
TRACK 02 AUDIO
TITLE "梦了"
PERFORMER "Sandy Lam"
FLAGS DCP
INDEX 00 04:45:66
INDEX 01 04:50:32
TRACK 03 AUDIO
TITLE "让我笑吧"
PERFORMER "Sandy Lam"
FLAGS DCP
INDEX 00 07:52:69
INDEX 01 07:57:11
TRACK 04 AUDIO
TITLE "埃及玫瑰"
PERFORMER "Sandy Lam"
FLAGS DCP
INDEX 00 12:26:59
INDEX 01 12:30:49
TRACK 05 AUDIO
TITLE "拥有"
PERFORMER "Sandy Lam"
FLAGS DCP
INDEX 00 17:31:13
INDEX 01 17:31:47
TRACK 06 AUDIO
TITLE "我要等的正是你(VS陈百强)"
PERFORMER "Sandy Lam"
FLAGS DCP
INDEX 00 21:29:19
INDEX 01 21:31:35
TRACK 07 AUDIO
TITLE "冬季来的女人(VS王杰)"
PERFORMER "Sandy Lam"
FLAGS DCP
INDEX 00 26:26:58
INDEX 01 26:32:26
TRACK 08 AUDIO
TITLE "温柔的你(VS王杰)"
PERFORMER "Sandy Lam"
FLAGS DCP
INDEX 00 31:48:17
INDEX 01 31:53:33
TRACK 09 AUDIO
TITLE "此情只待成追忆(VS伦永亮)"
PERFORMER "Sandy Lam"
FLAGS DCP
INDEX 00 37:01:60
INDEX 01 37:05:37
TRACK 10 AUDIO
TITLE "情人的眼泪"
PERFORMER "Sandy Lam"
FLAGS DCP
INDEX 00 41:03:00
INDEX 01 41:07:34
TRACK 11 AUDIO
TITLE "爱上一个不回家的人"
PERFORMER "Sandy Lam"
FLAGS DCP
INDEX 00 45:59:16
INDEX 01 46:01:29
TRACK 12 AUDIO
TITLE "哈罗寂寞"
PERFORMER "Sandy Lam"
FLAGS DCP
INDEX 00 50:59:63
INDEX 01 51:01:36
TRACK 13 AUDIO
TITLE "你给我的爱不是爱"
PERFORMER "Sandy Lam"
FLAGS DCP
INDEX 00 54:44:51
INDEX 01 54:45:40
TRACK 14 AUDIO
TITLE "谁是我的唯一"
PERFORMER "Sandy Lam"
FLAGS DCP
INDEX 00 59:25:19
INDEX 01 59:29:24
TRACK 15 AUDIO
TITLE "夜来香"
PERFORMER "Sandy Lam"
FLAGS DCP
INDEX 00 63:59:65
INDEX 01 64:03:33
how come no MP3 format??
MP3转换的PAE
骗子
我用音频图谱和auCDtect都测试过

骗人有意思吗
大家都是下的那么辛苦
!!!
同意7楼的兄弟,我转MP3的时候发现转错了
我选第二碟下了,用Tau Analyzer检测,好几首都显示“MPEG”(说明是MP3转录的),令人失望。
好象是在宝丽金的年代的作品!!
其实她最好的作品还是在滚石的时候:<爱上一个不回家的人><伤痕><当爱已成往事><铿锵玫瑰>等等,成为话语经典的女人还是在滚石造就的.
好听的经典老歌
没错,我用Adobe Audition 3.0看了频谱是假的,mp3转的APE
早期和滚石风格不同……
我起初是因为听滚石时代的伤痕和夜太黑喜欢上她
但是现在越来越偏爱早期作品了
对她早期不是很了解的可以通过这张专辑认识一下
感谢lz的发布
我替楼主评反一下...


auCDtect.exe -m0 "林忆莲.-.[华纳最出色系列.林忆莲.CD1].专辑.(APE).ape.wav"

This track looks like CDDA with probability 100%




auCDtect.exe -m0 "林忆莲.-.[华纳最出色系列.林忆莲.CD2].专辑.(APE).ape.wav"

This track looks like CDDA with probability 100%





auCDtect.exe -m0 "林忆莲.-.[华纳最出色系列.林忆莲.CD3].专辑.(APE).ape.wav"

This track looks like CDDA with probability 100%
爱上一个不回家的人