张学友 -《Life is Like a Dream》[APE]

张学友 -《Life is Like a Dream》[APE]
  • 片  名  张学友 -《Life is Like a Dream》[APE]
  • 简  介  发行时间: 2004年地区: 香港语言: 粤语
  • 类  别  音乐
  • 小  类  华语音乐


  • 详细介绍专辑中文名: Life is Like a Dream歌手: 张学友资源格式: APE发行时间: 2004年地区: 香港语言: 粤语简介:
    专辑介绍:
    蛰伏多年的乐坛天王张学友花了三年心血制作的全新粤语碟《Life is Like a Dream》在4月推出,有别于他历年来之芸芸唱片乃这是第一张完全属于学友自己的唱片,碟内十首歌曲均由他亲自作曲,每一首都代表他对身边人和事的看法,是一张学友精心细选,最能代表他自己的作品集。
    ps:内嵌CUE
  • 张学友 -《Life is Like a Dream》[APE]_large

精选评论

怎么没有CUE文件??
PERFORMER "张学友"
TITLE "Life.is.Like.a.Dream"
FILE "张学友.-.[Life.is.Like.a.Dream].专辑.(ape).ape" WAVE
TRACK 01 AUDIO
TITLE "勇敢的故事"
PERFORMER "张学友"
INDEX 01 00:00:00
TRACK 02 AUDIO
TITLE "想劈酒"
PERFORMER "张学友"
INDEX 01 02:29:52
TRACK 03 AUDIO
TITLE "燥狂"
PERFORMER "张学友"
INDEX 01 06:05:52
TRACK 04 AUDIO
TITLE "Life is like a dream"
PERFORMER "张学友"
INDEX 01 10:02:65
TRACK 05 AUDIO
TITLE "慢条斯理"
PERFORMER "张学友"
INDEX 01 13:11:35
TRACK 06 AUDIO
TITLE "她"
PERFORMER "张学友"
INDEX 01 17:30:07
TRACK 07 AUDIO
TITLE "给朋友"
PERFORMER "张学友"
INDEX 01 21:23:10
TRACK 08 AUDIO
TITLE "宁愿做错"
PERFORMER "张学友"
INDEX 01 25:29:70
TRACK 09 AUDIO
TITLE "讲你知"
PERFORMER "张学友"
INDEX 01 30:09:50
TRACK 10 AUDIO
TITLE "瑶瑶"
PERFORMER "张学友"
INDEX 01 33:54:70

我自己临时做了一个.勉强可以用
PERFORMER "张学友"
TITLE "Life.is.Like.a.Dream"
FILE "张学友.-.[Life.is.Like.a.Dream].专辑.(ape).ape" WAVE
TRACK 01 AUDIO
TITLE "勇敢的故事 "
INDEX 01 00:00:00
TRACK 02 AUDIO
TITLE "想劈酒"
INDEX 01 02:29:60
TRACK 03 AUDIO
TITLE "燥狂"
INDEX 01 06:07:67
TRACK 04 AUDIO
TITLE "Life is like a dream"
INDEX 01 10:05:35
TRACK 05 AUDIO
TITLE "慢条斯理"
INDEX 01 13:12:25
TRACK 06 AUDIO
TITLE "她"
INDEX 01 17:31:56
TRACK 07 AUDIO
TITLE "给朋友"
INDEX 01 21:23:53
TRACK 08 AUDIO
TITLE "宁愿做错"
INDEX 01 25:30:17
TRACK 09 AUDIO
TITLE "讲你知"
INDEX 01 30:09:36
TRACK 10 AUDIO
TITLE "瑶瑶"
INDEX 01 33:53:50
上面的那个是我从APE里面导出来的!
对《Life is like a dream》的MV印象很深!
谢谢楼主的分享,也谢谢二楼和三楼提供的CUE文件内容。
咋用呀
谢谢提供cue 不错的专辑
谢谢提供CUE的朋友,life is like dream不错。
支持创作!谢谢分享!
谢谢2L、3L提供cue的朋友
之前已下载好,今天特地回复表示感谢。
不知如何操作才能把自己下载的内容和其他朋友共享,有知道的朋友请告知。
感謝辛苦整理分享