郑阳 -《水月情缘》(the love of moon and water)ape[APE]

郑阳 -《水月情缘》(the love of moon and water)ape[APE]
  • 片  名  郑阳 -《水月情缘》(the love of moon and water)ape[APE]
  • 简  介  发行时间: 2005年12月08日地区: 大陆语言: 普通话
  • 类  别  音乐
  • 小  类  华语音乐


  • 详细介绍专辑中文名: 水月情缘专辑英文名: the love of moon and water歌手: 郑阳资源格式: APE版本: ape发行时间: 2005年12月08日地区: 大陆语言: 普通话简介:
    (以前是mp3版本,这次发布ape版本,新人新声,值得推荐)
      挑战原创,她有点石成金的魔力!!!你一定要听的不一样的声音,全面惊宠你的耳朵!!!
      对于发烧界来说,这是一个翻唱漫天飞舞的非常时期,一首歌曲一夜间竟可以找到数十个版本,不知道是不是属于一种音乐上的环保?这些歌曲的再生能力实在是超乎想象,并且唱红了一大批新的名字。不过,我们已经快要在这片海中淹死了,我无法理解为一首普通的流行歌曲拥有几十个版本的悲壮的消费心理,也不知道那些在别人的歌里念经的歌手是不是真的算是个歌者?如果我们在原创音乐里无法为我们饥渴的精神需求找到更好的寄托,至少,我们需要一个真正会唱歌的歌喉!
      我不想回避自己刚见到这些曲目时的麻木和反感,又是翻唱,这是很真实的反应;当然也不想隐瞒在听到郑阳唱歌时的惊讶和惋惜。她是一个天生的歌者,她的神奇之处在于她为别人的音乐贴上了自己的个性标签,她不曾在那些珠玉在前的阴影里丢失自己,甚至,她在超越。把借来的衣服穿得如此合体已经让人惊异,而其中的一些歌曲仿佛就是为她量体裁衣之作,这不能不让人为她喝彩!她没有黄莺出谷的绝妙音质,但是她能让人感动。唯一的原因,就是她拉近了灵魂与音乐的距离,她有对音乐良好的理解力和极好的诠释能力。她真的很会唱歌。如果有自己的音乐,她一定会非常不同!
  • 郑阳 -《水月情缘》(the love of moon and water)ape[APE]_large

精选评论

FILE "郑阳.-.[水月情缘].专辑.(APE).ape" WAVE
TRACK 01 AUDIO
TITLE "01. 城里的月光"
INDEX 01 00:00:00
TRACK 02 AUDIO
TITLE "02. 红豆"
INDEX 01 04:48:60
TRACK 03 AUDIO
TITLE "03. 突然想爱你"
INDEX 01 09:12:41
TRACK 04 AUDIO
TITLE "04. 明月千里寄相思"
INDEX 01 13:52:55
TRACK 05 AUDIO
TITLE "05. 白月光"
INDEX 01 18:00:57
TRACK 06 AUDIO
TITLE "06. 但愿人长久"
INDEX 01 22:34:70
TRACK 07 AUDIO
TITLE "07. 我愿意"
INDEX 01 27:15:09
TRACK 08 AUDIO
TITLE "08. 你看你看月亮的脸"
INDEX 01 31:44:45
TRACK 09 AUDIO
TITLE "09. 弯弯的月亮"
INDEX 01 35:56:44
TRACK 10 AUDIO
TITLE "10. 明月心"
INDEX 01 40:30:58
TRACK 11 AUDIO
TITLE "11. 上弦月"
INDEX 01 45:20:26
TRACK 12 AUDIO
TITLE "12. 月亮代表我的心"
INDEX 01 49:09:74