《明日的与一角色歌集》(Asu no Yoichi!)[Character Song1~4][附BK][APE+MP3(320Kbps)](更新Vol.3~4)

《明日的与一角色歌集》(Asu no Yoichi!)[Character Song1~4][附BK][APE+MP3(320Kbps)](更新Vol.3~4)
  • 片  名  《明日的与一角色歌集》(Asu no Yoichi!)[Character Song1~4][附BK][APE+MP3(320Kbps)](更新Vol.3~4)
  • 简  介  发行时间: 2009年02月25日对白语言: 日语文字语言: 日文
  • 类  别  动漫
  • 小  类  动漫周边


  • 详细介绍中文名: 明日的与一角色歌集英文名: Asu no Yoichi!别名: 明日のよいち!版本: [Character Song1~4][附BK][APE+MP3(320Kbps)](更新Vol.3~4)发行时间: 2009年02月25日地区: 日本对白语言: 日语文字语言: 日文简介: 【动画介绍】
    故事主人公是与父亲两人在山上修行的少年剑士鸟丸与一。有一天,父亲忽然对他说:“就这样下去的话,你不可能变得更强大!”,并让他去新天地接受新的挑战。于是他决意来到都市来进行全新的修行生活。初来都市的土包子与一,和同为浮羽神风流派的斑鸠道场的可爱大小姐斑鸠伊吹相识,并开始了与四位美人姐妹同一屋檐下的生活...
    【单曲介绍】
    TVアニメ『明日のよいち!』 キャラクターソング Vol.1 斑鳩いぶき (CV.佐藤利奈)
    斑鳩いぶき (CV: 佐藤利奈) 商品番号: LHCM-1053
    メディア: マキシシングルCD
    組枚数: 1
    発売日: 2009/02/25
    価格: 1200円(税込)
    内容
    2009年1月よりTBS他にて放送のTVアニメ『明日のよいち!』から、ヒロイン4姉妹のキャラクターソングがそれぞれ2曲入りシングルCDとして発売!! 第1弾は長女の 斑鳩いぶき 。演じるのは人気声優 佐藤利奈 。王道的なヒロインを思わせる元気な歌と、その癒し系ボイスにマッチした心温まる歌の2曲入り。
    ボーナス・トラック: 佐藤利奈からのコメントを収録
    【Artist Cast】
    斑鳩いぶき(佐藤利奈) (アーティスト) 畑亜貴 (作詞者) 
    藤末樹 (作曲者) 田代智一 (作曲者) 
    安岡洋一郎 (編曲者) 佐藤利奈 (アーティスト) 
    【收录曲目】
    1. 今日も明日もご一緒に!
    2. 名前のない気持ち
    3. 今日も明日もご一緒に!(off Vocal)
    4. 名前のない気持ち(off Vocal)
    5. 佐藤利奈コメント(ボーナストラック) 【单曲介绍】
    TVアニメ『明日のよいち!』 キャラクターソング Vol.2 斑鳩あやめ (CV.戸松遥)
    斑鳩あやめ (CV: 戸松遥) 商品番号: LHCM-1054
    メディア: マキシシングルCD
    組枚数: 1
    発売日: 2009/02/25
    価格: 1200円(税込)
    内容
    2009年1月よりTBS他にて放送のTVアニメ『明日のよいち!』から、ヒロイン4姉妹のキャラクターソングがそれぞれ2曲入りシングルCDとして発売!! 第2弾は次女の 斑鳩あやめ 。演じるのは人気急上昇中の声優 戸松遥 。自分に素直になれないツンデレキャラの心情を歌う。
    ボーナス・トラック: 戸松遥からのコメントを収録
    【Artist Cast】
    斑鳩あやめ(戸松遥) (アーティスト) 畑亜貴 (作詞者) 
    藤末樹 (作曲者) 田代智一 (作曲者) 
    安岡洋一郎 (編曲者) 戸松遥 (アーティスト) 
    【收录曲目】
    1. Girl grows up! ~TSUN-DERE Ver.~
    2. あたしはぜんぜん気にしてないっ
    3. Girl grows up!~TSUN-DERE Ver.~(off Vocal)
    4. あたしはぜんぜん気にしてないっ(off Vocal)
    5. 戸松遥コメント(ボーナストラック)


    【单曲介绍】
    TVアニメ『明日のよいち!』 キャラクターソング Vol.3 斑鳩ちはや (CV.田村ゆかり)
    斑鳩ちはや (CV.田村ゆかり)商品番号: LHCM-1056
    メディア: マキシシングルCD
    組枚数: 1
    発売日: 2009/03/25
    価格: 1200円(税込)
    内容
    2009年1月よりTBS他にて放送のTVアニメ『明日のよいち!』から、ヒロイン4姉妹のキャラクターソングがそれぞれ2曲入りシングルCDとして発売!! 第3弾は三女の 斑鳩ちはや 。演じるのは人気声優 田村ゆかり 。特徴あるキャラ
  • 《明日的与一角色歌集》(Asu no Yoichi!)[Character Song1~4][附BK][APE+MP3(320Kbps)](更新Vol.3~4)_large

精选评论

看起来很美
支持下!! 很不错 ,太感谢了
还是最爱次女
里面滴正太有爱..
偶是來支持戸松遥和あやめ醬滴!
P.S.:怎么感覺あやめCD封面里的大腿有些違和感呢……
あやめ。。。。。。。。。戏份很少捏 。。。。。。。。。。
新开动漫交友群71886603
群主MM与你一起分享动漫乐趣
喜欢户松遥~~感觉她唱歌很好听的啊
先下个MP3的听听~
戸松遥! +U~
CATALOG 4562183181519
PERFORMER "斄數偄傇偒(嵅摗棙撧)"
TITLE "柧擔偺傛偄偪両 僉儍儔僋僞乕僜儞僌 Vol.1 斄數偄傇偒(嵅摗棙撧)"
FILE "ibuki_ikaruga.ape" WAVE
TRACK 01 AUDIO
TITLE "崱擔傕柧擔傕偛堦弿偵両"
PERFORMER "斄數偄傇偒(嵅摗棙撧)"
ISRC JPI100900053
FLAGS DCP
INDEX 01 00:00:00
TRACK 02 AUDIO
TITLE "柤慜偺側偄婥帩偪"
PERFORMER "斄數偄傇偒(嵅摗棙撧)"
ISRC JPI100900054
FLAGS DCP
INDEX 00 03:43:05
INDEX 01 03:45:52
TRACK 03 AUDIO
TITLE "崱擔傕柧擔傕偛堦弿偵両 (off vocal)"
PERFORMER "丂"
ISRC JPI100900055
FLAGS DCP
INDEX 00 08:05:14
INDEX 01 08:08:62
TRACK 04 AUDIO
TITLE "柤慜偺側偄婥帩偪 (off vocal)"
PERFORMER "丂"
ISRC JPI100900056
FLAGS DCP
INDEX 00 11:51:55
INDEX 01 11:54:27
TRACK 05 AUDIO
TITLE "嵅摗棙撧僐儊儞僩"
PERFORMER "嵅摗棙撧"
ISRC JPI100900057
FLAGS DCP
INDEX 00 16:13:64
INDEX 01 16:17:37

CATALOG 4562183181526
PERFORMER "斄數偁傗傔(屗徏梱)"
TITLE "柧擔偺傛偄偪両 僉儍儔僋僞乕僜儞僌 Vol.2 斄數偁傗傔(屗徏梱)"
FILE "ayame_ikaruga.ape" WAVE
TRACK 01 AUDIO
TITLE "Girl grows up両 乣TSUN-DERE Ver.乣"
PERFORMER "斄數偁傗傔(屗徏梱)"
ISRC JPI100900179
FLAGS DCP
INDEX 01 00:00:00
TRACK 02 AUDIO
TITLE "偁偨偟偼偤傫偤傫婥偵偟偰側偄偭"
PERFORMER "斄數偁傗傔(屗徏梱)"
ISRC JPI100900180
FLAGS DCP
INDEX 00 03:52:06
INDEX 01 03:54:52
TRACK 03 AUDIO
TITLE "Girl grows up両 乣TSUN-DERE Ver.乣 (off vocal)"
PERFORMER "丂"
ISRC JPI100900181
FLAGS DCP
INDEX 00 08:06:14
INDEX 01 08:09:60
TRACK 04 AUDIO
TITLE "偁偨偟偼偤傫偤傫婥偵偟偰側偄偭 (off vocal)"
PERFORMER "丂"
ISRC JPI100900182
FLAGS DCP
INDEX 00 12:01:53
INDEX 01 12:04:25
TRACK 05 AUDIO
TITLE "屗徏梱僐儊儞僩"
PERFORMER "屗徏梱"
ISRC JPI100900183
FLAGS DCP
INDEX 00 16:15:61
INDEX 01 16:19:32


求LZ把2个CUE个翻译下好吗?实在看不懂。


CATALOG 4562183181519
PERFORMER "斑鳩いぶき(佐藤利奈)"
TITLE "明日のよいち! キャラクターソング Vol.1 斑鳩いぶき(佐藤利奈)"
FILE "ibuki_ikaruga.ape" WAVE
TRACK 01 AUDIO
TITLE "今日も明日もご一緒に!"
PERFORMER "斑鳩いぶき(佐藤利奈)"
ISRC JPI100900053
FLAGS DCP
INDEX 01 00:00:00
TRACK 02 AUDIO
TITLE "名前のない気持ち"
PERFORMER "斑鳩いぶき(佐藤利奈)"
ISRC JPI100900054
FLAGS DCP
INDEX 00 03:43:05
INDEX 01 03:45:52
TRACK 03 AUDIO
TITLE "今日も明日もご一緒に! (off vocal)"
PERFORMER " "
ISRC JPI100900055
FLAGS DCP
INDEX 00 08:05:14
INDEX 01 08:08:62
TRACK 04 AUDIO
TITLE "名前のない気持ち (off vocal)"
PERFORMER " "
ISRC JPI100900056
FLAGS DCP
INDEX 00 11:51:55
INDEX 01 11:54:27
TRACK 05 AUDIO
TITLE "佐藤利奈コメント"
PERFORMER "佐藤利奈"
ISRC JPI100900057
FLAGS DCP
INDEX 00 16:13:64
INDEX 01 16:17:37

CATALOG 4562183181526
PERFORMER "斑鳩あやめ(戸松遥)"
TITLE "明日のよいち! キャラクターソング Vol.2 斑鳩あやめ(戸松遥)"
FILE "ayame_ikaruga.ape" WAVE
TRACK 01 AUDIO
TITLE "Girl grows up! ~TSUN-DERE Ver.~"
PERFORMER "斑鳩あやめ(戸松遥)"
ISRC JPI100900179
FLAGS DCP
INDEX 01 00:00:00
TRACK 02 AUDIO
TITLE "あたしはぜんぜん気にしてないっ"
PERFORMER "斑鳩あやめ(戸松遥)"
ISRC JPI100900180
FLAGS DCP
INDEX 00 03:52:06
INDEX 01 03:54:52
TRACK 03 AUDIO
TITLE "Girl grows up! ~TSUN-DERE Ver.~ (off vocal)"
PERFORMER " "
ISRC JPI100900181
FLAGS DCP
INDEX 00 08:06:14
INDEX 01 08:09:60
TRACK 04 AUDIO
TITLE "あたしはぜんぜん気にしてないっ (off vocal)"
PERFORMER " "
ISRC JPI100900182
FLAGS DCP
INDEX 00 12:01:53
INDEX 01 12:04:25
TRACK 05 AUDIO
TITLE "戸松遥コメント"
PERFORMER "戸松遥"
ISRC JPI100900183
FLAGS DCP
INDEX 00 16:15:61
INDEX 01 16:19:32
THX!LZ!不过我现在渐渐的会自己整理了,很好很好,还是感谢LZ。