神思者 -《故宫三部曲之一》(Palace Memories)[APE]

神思者 -《故宫三部曲之一》(Palace Memories)[APE]
  • 片  名  神思者 -《故宫三部曲之一》(Palace Memories)[APE]
  • 简  介  发行时间: 1996年07月24日
  • 类  别  音乐
  • 小  类  古典音乐


  • 详细介绍专辑英文名: Palace Memories专辑中文名: 故宫三部曲之一艺术家: 神思者资源格式: APE发行时间: 1996年07月24日地区: 日本简介:
    专辑介绍
    《故宫三部曲》是神思者为NHK电视台纪录片《故宫》所作的配乐,其配乐精湛若斯,音乐符跌宕,随着历史叙述的起伏不断变换着节奏,低沉的打击乐仿佛敲响了永乐朝的大钟,故宫琉璃瓦覆盖下的庄严大殿代表着他们心中思慕的文明国度的瑰丽与辉煌。荡气回肠的音符,有如一次梦幻般的神奇旅行,又如一部大型的史诗电影,古老壮丽的风景翩翩掠过,浑厚文明的画卷—换化成音符来展现。而配乐第一部《故宫》就如同这部电影的序曲,这次旅行的开端,是初遇时的惊艳,是失语了的慨叹。
    似乎日本人比中国人还要了解中国的历史,这张专集气势磅礴却不缺乏细腻.出版于1996-7-24,是神思者第17张专辑,亦是为日本NHK电视台纪录片《故宫》的配乐。作为中期的作品,应该说技巧手法上更加纯熟,在古典和流行,民族和电子的融合上做得更圆润,音乐也更富有自己的烙印特色。专辑中快慢曲目搭配得宜,曲子各有特色,但又能够相互协调,使全碟整体性和耐听性大大提高。古今中外的融合,令专辑也更具有Newage音乐的代表性。尤其这张碟目前在市场较为常见,更是相当值得推荐大家珍藏的作品。
    此次发布为日本原版,感谢【天易娱乐休闲论坛】的corleon !
    感谢坐云上的猪为我提供信息!
  • 神思者 -《故宫三部曲之一》(Palace Memories)[APE]_large

精选评论

cue下不了啊
是的,CUE下不了,谁有?
CUE完全沒有在下載的樣子‧‧
PERFORMER "S.E.N.S."
TITLE "Palace Memories"
FILE "神思者(S.E.N.S).-.[故宫三部曲.故宫].专辑.wav" WAVE
TRACK 01 AUDIO
TITLE "Time Slip"
PERFORMER "S.E.N.S."
INDEX 01 00:00:00
REM PLAY_COUNTER 4
REM PLAY_DATE 211204
REM PLAY_TIME 210511
TRACK 02 AUDIO
TITLE "Palace Memories"
PERFORMER "S.E.N.S."
INDEX 01 01:15:67
REM PLAY_COUNTER 4
REM PLAY_DATE 060105
REM PLAY_TIME 134221
TRACK 03 AUDIO
TITLE "Tresures"
PERFORMER "S.E.N.S."
INDEX 01 06:17:55
REM PLAY_COUNTER 2
REM PLAY_DATE 060105
REM PLAY_TIME 134723
TRACK 04 AUDIO
TITLE "Magic Warriors"
PERFORMER "S.E.N.S."
INDEX 01 09:13:00
REM PLAY_COUNTER 2
REM PLAY_DATE 060105
REM PLAY_TIME 135018
TRACK 05 AUDIO
TITLE "Imperial Vermillion"
PERFORMER "S.E.N.S."
INDEX 01 13:36:02
REM PLAY_COUNTER 2
REM PLAY_DATE 060105
REM PLAY_TIME 135441
TRACK 06 AUDIO
TITLE "Palace Memories-Sunset"
PERFORMER "S.E.N.S."
INDEX 01 18:16:15
REM PLAY_COUNTER 2
REM PLAY_DATE 060105
REM PLAY_TIME 135921
TRACK 07 AUDIO
TITLE "Chimes"
PERFORMER "S.E.N.S."
INDEX 01 21:46:72
REM PLAY_COUNTER 2
REM PLAY_DATE 060105
REM PLAY_TIME 140252
TRACK 08 AUDIO
TITLE "Peace of Mind"
PERFORMER "S.E.N.S."
INDEX 01 23:59:62
REM PLAY_COUNTER 2
REM PLAY_DATE 060105
REM PLAY_TIME 140505
TRACK 09 AUDIO
TITLE "The Dragon"
PERFORMER "S.E.N.S."
INDEX 01 27:38:00
REM PLAY_COUNTER 2
REM PLAY_DATE 060105
REM PLAY_TIME 140843
TRACK 10 AUDIO
TITLE "Visionary"
PERFORMER "S.E.N.S."
INDEX 01 31:03:17
REM PLAY_COUNTER 1
REM PLAY_DATE 060105
REM PLAY_TIME 141208
TRACK 11 AUDIO
TITLE "Palace Memories-Denouement"
PERFORMER "S.E.N.S."
INDEX 01 38:05:47
REM PLAY_COUNTER 1
REM PLAY_DATE 060105
REM PLAY_TIME 141910