蔡琴 -《情尽夜上海回忆录》[FLAC]

蔡琴 -《情尽夜上海回忆录》[FLAC]
  • 片  名  蔡琴 -《情尽夜上海回忆录》[FLAC]
  • 简  介  音乐风格: 流行发行时间: 2003年09月06日地区: 台湾语言: 普通话
  • 类  别  音乐
  • 小  类  华语音乐


  • 详细介绍专辑中文名: 情尽夜上海回忆录歌手: 蔡琴音乐风格: 流行资源格式: FLAC发行时间: 2003年09月06日地区: 台湾语言: 普通话简介: 专辑介绍:
    ⊙唱片界生力军[果陀文化娱乐公司]正式成立,艺高胆大向五大唱片公司踢馆
    2003年9月,国内首屈一指的[果陀剧场]正式成立了[果陀文化娱乐公司]。正所谓初生之犊不畏虎,[果陀文化娱乐公司]将目标锁定一向要求高质感的发烧片市场,推出的第一张代表作品[情尽夜上海回忆录]专辑来势汹汹,挟带了全国五万多名观众的期待,艺高胆大地向五大唱片公司踢馆来了!这批不怕死的生力军,不像现今唱片公司只是一昧地寻找新款的曲风或劲爆的词句以满足消费者的新鲜感,我们将会让你看见唯有新手才有胆识做出的创意与魄力,真正突破那套唱片听众早已疲乏厌倦的制作思维,[果陀文化娱乐公司]将秉持着 歌声有画面 、 音乐有戏味 、 音符有灵魂 的音乐目标制作出一张又一张永不退流行的流行专辑。
    ⊙发烧片金三角 金嗓歌后蔡琴+金奖大师鲍比达+金牌监制梁志民 《情尽夜上海 回忆录》信心打头阵
    [果陀文化娱乐公司]创立代表作品[情尽夜上海回忆录]专辑,由 发烧片金三角 --金嗓歌后蔡琴+金奖大师鲍比达+金牌监制梁志民联手打造,这样不可多得的组合已经是发烧市场中的金字招牌,专辑中更是集结了轰动全国的隽永老歌歌舞剧《情尽夜上海》剧中十四首感人的经典歌曲,每一首歌里都蕴涵了《情》剧五万多名观众的眼泪,而蔡琴再度化身为30年代上海知名交际花 白玉薇 ,用歌声引领听者重回那纸醉金迷的时代,一同经历白玉薇悲欢离合的人生,蔡琴在这张专辑里 唱中带演、演中有意 的表现,让这些歌曲更加生动且更为深情,一首首动人的旋律绘构成了一幕幕浪漫凄美的不朽画面,听者仿佛置身于一座 听觉剧场 之中,当你听了这张专辑之后,你会发现这是一张看得见的专辑,从音乐里你看得到上海的歌舞升平,你更看得到那位为爱牺牲的女子她的一颦一笑,这绝对是你在其他专辑中体会不到的深刻感受,这也正是[果陀文化娱乐公司]为唱片工业所带来的一次大革命。
    ⊙这是一位可以唱一辈子的歌者,更是一位可以听一辈子的歌者。蔡琴在发烧友心中的地位无可取代
    发烧片不同于一般的流行唱片,流行唱片有所谓的宣传期或热卖期,而发烧片却是一卖就能卖上半个世纪,一听就能听上一辈子的顶级唱片作品,只有发烧片才能经得起百万音响敏锐的测试,也就只有完美的作品才能满足发烧友们挑剔的耳朵。当你上网输入发烧片三个字时,你会发现蔡琴所发行的专辑几乎全是发烧友强力推荐的顶级佳作,如:[淡水小镇原声带/机遇]、[金片子I、II辑]、[民歌蔡琴]...等,而[淡水小镇原声带/机遇]专辑就是发烧片品质的最好实证,当初在发行之时,这张专辑几乎毫无宣传动作,但在这四年来竟然已悄悄地累积了近十万张的销售成绩,蔡琴凭着她那完美的声线与丰富内敛的情感打动了这群爱乐者的耳朵并深深地触动了他们的心灵,有人说蔡琴柔美的低吟,美得教人魂飞魄散,他们对于蔡琴更有着如此的赞誉:[这是一位可以唱一辈子的歌者,也是一位可以听一辈子的歌者。而现在,这位金嗓歌后一蔡琴又将推出一张足以传颂一世纪的专辑作品。
    貌似VC只有MP3的版本,所以我想试试发一个flac的
    小弟第一次抓CD,第一次发布,希望各位赐教,在下会及时学习改正
    供源时间:7:00——24:00

  • 蔡琴 -《情尽夜上海回忆录》[FLAC]_large

精选评论

REM GENRE Folk
REM DISCID F7113D12
REM COMMENT "ExactAudioCopy v0.99pb4"
PERFORMER "蔡琴"
TITLE "情尽夜上海"
FILE "蔡琴 - 情尽夜上海.flac" WAVE
TRACK 01 AUDIO
TITLE "花落谁家+夜上海"
PERFORMER "蔡琴"
FLAGS DCP
INDEX 00 00:00:00
INDEX 01 00:00:01
TRACK 02 AUDIO
TITLE "知音何处寻"
PERFORMER "蔡琴"
FLAGS DCP
INDEX 00 03:40:31
INDEX 01 03:40:32
TRACK 03 AUDIO
TITLE "好春宵"
PERFORMER "蔡琴"
FLAGS DCP
INDEX 00 07:09:01
INDEX 01 07:09:02
TRACK 04 AUDIO
TITLE "魂萦旧梦+许我向你看"
PERFORMER "蔡琴"
FLAGS DCP
INDEX 00 09:29:58
INDEX 01 09:29:59
TRACK 05 AUDIO
TITLE "追寻"
PERFORMER "蔡琴"
FLAGS DCP
INDEX 01 15:51:46
TRACK 06 AUDIO
TITLE "得不到的爱情"
PERFORMER "蔡琴"
FLAGS DCP
INDEX 00 19:03:62
INDEX 01 19:03:63
TRACK 07 AUDIO
TITLE "我要等着你"
PERFORMER "蔡琴"
FLAGS DCP
INDEX 00 21:47:07
INDEX 01 21:47:08
TRACK 08 AUDIO
TITLE "一曲难忘+永远的微笑(演奏曲)"
PERFORMER "蔡琴"
FLAGS DCP
INDEX 01 25:21:59
TRACK 09 AUDIO
TITLE "谁怜父母心"
PERFORMER "蔡琴"
FLAGS DCP
INDEX 00 28:30:12
INDEX 01 28:30:13
TRACK 10 AUDIO
TITLE "三年"
PERFORMER "蔡琴"
FLAGS DCP
INDEX 01 32:56:10
TRACK 11 AUDIO
TITLE "情人的眼泪"
PERFORMER "蔡琴"
FLAGS DCP
INDEX 00 36:12:32
INDEX 01 36:12:33
TRACK 12 AUDIO
TITLE "一片痴情+我要等着你"
PERFORMER "蔡琴"
FLAGS DCP
INDEX 00 40:34:15
INDEX 01 40:34:16
TRACK 13 AUDIO
TITLE "不了情"
PERFORMER "蔡琴"
FLAGS DCP
INDEX 01 48:30:37
TRACK 14 AUDIO
TITLE "永远的微笑+花落谁家"
PERFORMER "蔡琴"
FLAGS DCP
INDEX 00 52:32:09
INDEX 01 52:32:10
TRACK 15 AUDIO
TITLE "你的眼神"
PERFORMER "蔡琴"
FLAGS DCP
INDEX 01 56:25:08
TRACK 16 AUDIO
TITLE "渡口"
PERFORMER "蔡琴"
FLAGS DCP
INDEX 01 60:38:24
TRACK 17 AUDIO
TITLE "一生都给你"
PERFORMER "蔡琴"
FLAGS DCP
INDEX 01 64:27:04
TRACK 18 AUDIO
TITLE "爱断情伤"
PERFORMER "蔡琴"
FLAGS DCP
INDEX 00 68:45:04
INDEX 01 68:45:05
大体上改对了,但是文件名还是不对
蔡琴.-.[情尽夜上海回忆录].专辑.(FLAC).flac
蔡琴.-.[情尽夜上海回忆录].专辑.(FLAC).cue
你复制我的这个吧
汗,非常感谢管理员指导

我真是。。。笨死了

不知道这次改对了没。。。
好东西。
怎么会有Bonus Track:
15. 你的眼神
16. 渡口
17. 一生都给你
18. 爱断情伤
你这是盗版碟吧?
支持。


一年前就曾BT了此专辑,原版就仅14首。而此帖其实就是D版,
楼主源传的怎么样了,如果传完了 我就开始下了,
纯支持一下, 大多她的歌了
老歌好经典啊 值得收藏了
声谱显示这flac在MP3切割线的位置上有个恒定的振动带

这这样的好处是在用软件检测真假无损时可以让软件以为此无损高频丰富



很厉害
经典的声音,经典的歌 永远喜欢她个她的歌
cue有问题