《接吻的艺术》(The Art Of Kissing )[DVDRip]

《接吻的艺术》(The Art Of Kissing )[DVDRip]
  • 片  名  《接吻的艺术》(The Art Of Kissing )[DVDRip]
  • 简  介  发行时间: 2001年地区: 美国语言: 英语
  • 类  别  综艺
  • 小  类  科教节目


  • 详细介绍中文名: 接吻的艺术英文名: The Art Of Kissing 资源格式: DVDRip发行时间: 2001年电视台: General Films主持人: 无地区: 美国语言: 英语简介: 接吻是一门艺术,但是有多少人知道其中的学问呢?本视频共3集,通过大量真人实例,为你讲解怎样接吻才能更有情调。包含各种各样的接吻方法,有温馨浪漫的,也有野蛮疯狂的,充满异国风情。情侣们不能错过O(∩_∩)O哈哈~
    引用G:The Art of KissingThe Art Of Kissing - 1 - How To Kiss.avi
    General
    Complete name : G:The Art of KissingThe Art Of Kissing - 1 - How To Kiss.avi
    Format : AVI
    Format/Info : Audio Video Interleave
    File size : 259 MiB
    Duration : 40mn 1s
    Overall bit rate : 903 Kbps
    Writing application : VirtualDubMod 1.5.10.1 (build 2439/release)
    Writing library : VirtualDubMod build 2439/release
    Video
    Format : MPEG-4 Visual
    Format profile : Streaming Video@L1
    Format settings, BVOP : Yes
    Format settings, QPel : No
    Format settings, GMC : 3 warppoints
    Format settings, Matrix : Default
    Muxing mode : Packed bitstream
    Codec ID : XVID
    Codec ID/Hint : XviD
    Duration : 40mn 1s
    Bit rate : 816 Kbps
    Width : 512 pixels
    Height : 368 pixels
    Display aspect ratio : 1.391
    Frame rate : 29.970 fps
    Resolution : 24 bits
    Colorimetry : 4:2:0
    Scan type : Progressive
    Bits/(Pixel*Frame) : 0.144
    Stream size : 234 MiB (90%)
    Writing library : XviD 1.0.2 (UTC 2004-08-29)
    Audio
    Format : MPEG Audio
    Format version : Version 1
    Format profile : Layer 3
    Codec ID : 55
    Codec ID/Hint : MP3
    Duration : 40mn 1s
    Bit rate mode : Variable
    Bit rate : 75.8 Kbps
    Minimum bit rate : 80.0 Kbps
    Channel(s) : 2 channels
    Sampling rate : 32.0 KHz
    Resolution : 16 bits
    Stream size : 21.7 MiB (8%)
    Alignment : Aligned on interleaves
    Interleave, duration : 36 ms (1.08 video frame)
    Interleave, preload duration : 258 ms
    Writing library : LAME3.96r
    Encoding settings : ABR

  • 《接吻的艺术》(The Art Of Kissing )[DVDRip]_large

精选评论

看看!
感谢发布,很独特的题材。
其实……我只想知道演员的感受……
不错不错
哈哈哈哈哈 看看能学到什么。
嘿嘿~我来观摩一下。
好啊~!!沙发~
这个就真的强了。
不是说有三集嘛,剩下的来?
下来学习下,哈哈……
看看!是中文字幕吗?
我想做艺术家!
哇塞艺术~~~
只可意会不可言传 要字幕干啥
千看万想不如一试