红色之血 Rotkappchen: The Blood of Red Riding Hood 2009 DVDRip

红色之血 Rotkappchen: The Blood of Red Riding Hood 2009 DVDRip
  • 片  名  红色之血 Rotkappchen: The Blood of Red Riding Hood 2009 DVDRip
  • 简  介  无
  • 类  别  电影
  • 小  类  欧美


  • 详细介绍

    转载请注明

    ◎译  名 红色之血
    ◎片  名 Rotkappchen: The Blood of Red Riding Hood
    ◎年  代 2009
    ◎国  家 美国
    ◎类  别 剧情/奇幻/惊悚/恐怖/神秘
    ◎语  言 英语
    ◎字  幕 N/A
    ◎IMDB评分 7.0/10 (10 votes)
    ◎IMDB链接 http://www.imdb.com/title/tt1339493/
    ◎文件格式 XviD + AC-3
    ◎视频尺寸 672 x 336
    ◎文件大小 1CD 50 x 15MB
    ◎片  长 104 Mins
    ◎导  演 哈里·斯派克斯 Harry Sparks
    ◎主  演 
    Stefanie Geils ....Rose
    Sativa Verte ....Summer
    Nicole Leigh Vuono ....Bridgette
    Phil Gibson ....Nick
    Chris O&39;s girlfriend Bridgette, and the once quiet town finds itself rattled by a series of gruesome, mysterious murders.
    代码General
    Complete name : Rotkappchen: The Blood of Red Riding Hood 2009 DVDRip Xvid BigPerm LKRG\RTBoRRH_LKRG.avi
    Format : AVI
    Format/Info : Audio Video Interleave
    File size : 991 MiB
    Duration : 1h 44mn
    Overall bit rate : 1 321 Kbps
    Writing library : VirtualDub build 32817/release

    Video
    ID : 0
    Format : MPEG-4 Visual
    Format profile : Advanced Simple@L3
    Format settings, BVOP : Yes
    Format settings, QPel : No
    Format settings, GMC : No warppoints
    Format settings, Matrix : Default (H.263)
    Muxing mode : Packed bitstream
    Codec ID : XVID
    Codec ID/Hint : XviD
    Duration : 1h 44mn
    Bit rate : 861 Kbps
    Width : 672 pixels
    Height : 336 pixels
    Display aspect ratio : 2.000
    Frame rate : 29.970 fps
    Color space : YUV
    Chroma subsampling : 4:2:0
    Bit depth : 8 bits
    Scan type : Progressive
    Compression mode : Lossy
    Bits/(Pixel*Frame) : 0.127
    Stream size : 646 MiB (65%)
    Writing library : XviD 1.2.1 (UTC 2008-12-04)

    Audio
    ID : 1
    Format : AC-3
    Format/Info : Audio Coding 3
    Mode extension : CM (complete main)
    Codec ID : 2000
    Duration : 1h 44mn
    Bit rate mode : Constant
    Bit rate : 448 Kbps
    Channel(s) : 6 channels
    Channel positions : Front: L C R, Side: L R, LFE
    Sampling rate : 48.0 KHz
    Bit depth : 16 bits
    Compression mode : Lossy
    Stream size : 336 MiB (34%)
    Alignment : Aligned on interleaves
    Interleave, duration : 33 ms (1.00 video frame)
    Interleave, preload duration : 512 ms
    Language : English

  • 红色之血 Rotkappchen: The Blood of Red Riding Hood 2009 DVDRip_large