群星 -《情牵女人心》[APE]

群星 -《情牵女人心》[APE]
  • 片  名  群星 -《情牵女人心》[APE]
  • 简  介  发行时间: 1997年地区: 台湾语言: 普通话
  • 类  别  音乐
  • 小  类  华语音乐


  • 详细介绍专辑中文名: 情牵女人心歌手: 群星资源格式: APE发行时间: 1997年地区: 台湾语言: 普通话简介:
    专辑名称:情牵女人心
    专辑歌手:辛晓琪 万芳 陈淑华 齐豫 李度
    发行日期:1997
    专辑语种:国语
    唱片公司:滚石唱片
    专辑介绍:
    女人的声音可以这样沉静也可以这样明亮还可以这样充满力量情牵女人心,最美的女人声音,女人迷恋声音,男人追随视觉, 女人的声音可以是甜蜜的,可以是妩媚的,可以是银铃般的,也可以是完全不同的。今天带来的情牵女人心我们会听见许多不同美丽......
  • 群星 -《情牵女人心》[APE]_large

精选评论

感谢分享!收下!
尽管下载速度有点慢,但听完后就会感慨真的很值。超好听的歌曲,首首动人,音质不错。感谢LZ!
难得的好专辑,每一首都堪称经典!
cue文件有點問題,下面是我修改過的:

REM GENRE Pop
REM DATE 1995
PERFORMER "Various"
TITLE "情牽女人心"
FILE "群星.-.[情牵女人心].专辑.(ape).ape" WAVE
TRACK 01 AUDIO
TITLE "味道"
PERFORMER "辛曉琪"
INDEX 01 00:00:00
TRACK 02 AUDIO
TITLE "試著瞭解"
PERFORMER "萬芳"
INDEX 01 03:57:62
TRACK 03 AUDIO
TITLE "夢醒時分"
PERFORMER "陳淑樺"
INDEX 01 09:09:12
TRACK 04 AUDIO
TITLE "走在雨中"
PERFORMER "齊豫"
INDEX 01 13:13:62
TRACK 05 AUDIO
TITLE "新不了情"
PERFORMER "萬芳"
INDEX 01 16:59:12
TRACK 06 AUDIO
TITLE "明天我要嫁給你"
PERFORMER "李度"
INDEX 01 21:27:50
TRACK 07 AUDIO
TITLE "滾滾紅塵"
PERFORMER "陳淑樺"
INDEX 01 25:59:25
TRACK 08 AUDIO
TITLE "歡顏"
PERFORMER "齊豫"
INDEX 01 29:08:00
TRACK 09 AUDIO
TITLE "走過"
PERFORMER "辛曉琪"
INDEX 01 32:56:25
TRACK 10 AUDIO
TITLE "領悟"
PERFORMER "辛曉琪"
INDEX 01 37:31:00
TRACK 11 AUDIO
TITLE "這樣愛你對不對"
PERFORMER "辛曉琪"
INDEX 01 42:25:12
TRACK 12 AUDIO
TITLE "橄欖樹"
PERFORMER "齊豫"
INDEX 01 46:21:37
TRACK 13 AUDIO
TITLE "捨不得把眼睛睜開"
PERFORMER "李度"
INDEX 01 50:06:37
TRACK 14 AUDIO
TITLE "猜心"
PERFORMER "萬芳"
INDEX 01 54:20:62
TRACK 15 AUDIO
TITLE "船歌"
PERFORMER "齊豫"
INDEX 01 59:14:37
好东西,感谢楼主无私奉献
曾经最爱。感谢楼主
不错的歌,可惜没源了。