《CLANNAD音楽集》(CLANNAD)[TTA+APE+MP3(320Kbps)]

《CLANNAD音楽集》(CLANNAD)[TTA+APE+MP3(320Kbps)]
  • 片  名  《CLANNAD音楽集》(CLANNAD)[TTA+APE+MP3(320Kbps)]
  • 简  介  发行时间: 2003年12月28日对白语言: 日语
  • 类  别  动漫
  • 小  类  动漫周边


  • 详细介绍中文名: CLANNAD音楽集英文名: CLANNAD别名: クラナド版本: [TTA+APE+MP3(320Kbps)]发行时间: 2003年12月28日地区: 日本对白语言: 日语简介:
    【劇情介紹】
    家族……被我拒绝的地方: CLANNAD的男主角——冈崎朋也,是一个拒绝与家人交流、不愿留在家里的人。在他幼年时,母亲因故去世……父亲因此整日借酒消愁,原本应该相依为命的两人,却因为不愿去理解对方的痛苦而互相疏远,生活渐渐颓废下来;最终在他初中时,因为一次家庭暴力,而使得父子俩的关系落到了谷底。从此以后,朋也与父亲行同陌路,两人的关系似乎只能在血缘和法律上得以维持。他每天去上学,但无论是上课还是课余都只是魂不守舍地发呆,终日得过且过地继续着学生生涯。他不参加任何社团活动,也没有深交的朋友,连唯一能和他亲密说话、每晚“收留”他的“朋友”——春原阳平,也无法触及到他心中冰冻的部分……互不乾涉对方深藏的心底的痛苦,这是保证他们两人能继续同来同往的底线。岁月无情地流逝,那在朋也身边仿佛停滞了的时间,也即将迎来终结……就在那长长的坡道之下。(介绍文字来自:KEY FANS CLUB)
    【專輯介紹】
    ソララド クラナドイメージボーカルアルバム
    ◆商品番号: KSLA-0009
    ◆メディア: CD
    ◆組枚数: 1
    ◆発売日: 2003/12/28
    ◆価格: 2,100(税込)
    【アーティスト/ キャスト】
    riya(アーティスト)
    「内容」
    紹介(「丸紅インフォテック」データベースより)
    クラナドの世界観を描ききるボーカルアルバム。2003年冬のイベントで限定販売されたCDが一般発売化。クラナドのオリジナルBGMから旋律を引用し、「Little Wing」(MANYO たくまる)が新たにボーカル曲を作成。ボーカルにはクラナドのオープニングとエンディングテーマを歌う「riya」を起用。クラナドの世界観を描ききる6曲入りボーカルアルバム。
    商品紹介
    クラナドのオリジナルBGMから旋律を引用し、「Little Wing」(MANYO、たくまる)が新たにボーカル曲を作成。ボーカルにはクラナドのオープニングとエンディングテーマを歌う「riya」を起用。クラナドの世界観を描ききる6曲入りボーカルアルバム。
    【收錄曲目】
    1. 少女の幻想
    2. オーバー
    3. 海鳴り
    4. 遠い旅の記憶
    5. 一万の軌跡
    6. 空に光る
    _____________________________________________________
    【專輯介紹】
    MAGINOBI -CLANNAD arrange album-
    ◆商品番号: N/A
    ◆メディア: CD
    ◆組枚数: 1
    ◆発売元: Key
    ◆発売日: 2004/04/28 *ゲーム発売日*
    ◆価格: 非売品
    【アーティスト/ キャスト】
    riya(アーティスト)
    「内容」
    PCソフトメーカー”Key”の作品、『CLANNAD』の初回版に特典として同梱されたアレンジアルバム。ある意味このメーカーの初回版恒例の同梱物である。
    処女作となる『Kanon』に同梱された”anemoscope”、Keyの現在の地位を確立させた『AIR』に同梱された”Ornithopter”、この2つのアレンジアルバム以上の拘りを見せる内容に、製作者側のこの作品、特に音楽関係にかけた意気込みを窺い知る事が出来る。
    【收錄曲目】
    01 その桜簾を抜けて - original title onaji takamie
    02 萌葱色の石畳を駆ける - original title inakakomichi
    03 風になびく向日葵色のワンピース - original title hurry, starfish
    04 胸元にライラックの花飾り - original title hibono itoma
    05 手のひらに残る温もりは - original ti
  • 《CLANNAD音楽集》(CLANNAD)[TTA+APE+MP3(320Kbps)]_large

精选评论

上面那个是软件切的,时间轴不对。。
手动切的,测试过没有问题了。

REM GENRE Classical
REM DATE 2005
REM DISCID 760A7409
REM COMMENT "ExactAudioCopy v0.99pb3"
PERFORMER "Key"
TITLE "CLANNAD arrange album 「MABINOGI」"
FILE "Key - CLANNAD arrange album 「MABINOGI」.ape" WAVE
TRACK 01 AUDIO
TITLE "その桜簾を抜けて "
PERFORMER "Key"
INDEX 01 00:00:00
TRACK 02 AUDIO
TITLE "萌葱色の石畳を駆ける"
PERFORMER "Key"
INDEX 01 03:30:00
TRACK 03 AUDIO
TITLE "風になびく向日葵色のワンピース "
PERFORMER "Key"
INDEX 01 09:40:00
TRACK 04 AUDIO
TITLE "胸元にライラックの花飾り "
PERFORMER "Key"
INDEX 01 13:03:45
TRACK 05 AUDIO
TITLE "手のひらに残る温もりは "
PERFORMER "Key"
INDEX 01 15:01:25
TRACK 06 AUDIO
TITLE "生まれ変わった新しい生命 "
PERFORMER "Key"
INDEX 01 19:41:50
TRACK 07 AUDIO
TITLE "光あふれる揺りかごの中で"
PERFORMER "Key"
INDEX 01 26:10:28
TRACK 08 AUDIO
TITLE "母から子へ受け継がれる小さな唄"
PERFORMER "Key"
INDEX 01 32:14:70
TRACK 09 AUDIO
TITLE "メグメル(OPテーマ)"
PERFORMER "Key"
INDEX 01 39:42:70
MAGINOBI -CLANNAD arrange album-
缺cue
好!!我要了.终于有全的了
☣๑۩۞۩๑☣๑۩۩..♥..۩۩๑☣๑۩۞۩๑☣
⊙⊙⊙⊙⊙⊙⊙⊙⊙⊙⊙⊙⊙⊙⊙
⊙⊙⊙★★★⊙⊙⊙★★★⊙⊙⊙
⊙⊙★赞赞赞★持★赞赞赞★⊙⊙
⊙★赞赞赞赞赞★赞赞赞赞赞★⊙
⊙★赞赞赞赞赞赞赞赞赞赞赞★⊙
⊙⊙★赞赞赞赞赞赞赞赞赞★⊙⊙
⊙⊙⊙★赞赞赞赞赞赞赞★⊙⊙⊙
⊙⊙⊙⊙★赞赞赞赞赞★⊙⊙⊙⊙
⊙⊙⊙⊙⊙★赞赞赞★⊙⊙⊙⊙⊙
⊙⊙⊙⊙⊙⊙★赞★⊙⊙⊙⊙⊙⊙
⊙⊙⊙⊙⊙⊙⊙★⊙⊙⊙⊙⊙⊙⊙
⊙⊙⊙⊙⊙⊙⊙⊙⊙⊙⊙⊙⊙⊙⊙

支持๑۩۩..♥..۩۩๑[TTA+APE+MP3(320Kbps)]๑۩۩..♥..۩۩๑,支持高保真。

感谢伟大无私的楼主;

感谢伟大的互联网;

感谢伟大的下载工具;

感谢妈妈我买的电脑;

感谢佛主赐予我们如此丰富的精神食量,阿门!o(∩_∩)o...
☣๑۩۞۩๑☣๑۩۩..♥..۩۩๑☣๑۩۞۩๑☣
⊙⊙⊙⊙⊙⊙⊙⊙⊙⊙⊙⊙⊙⊙⊙
⊙⊙⊙★★★⊙⊙⊙★★★⊙⊙⊙
⊙⊙★赞赞赞★持★赞赞赞★⊙⊙
⊙★赞赞赞赞赞★赞赞赞赞赞★⊙
⊙★赞赞赞赞赞赞赞赞赞赞赞★⊙
⊙⊙★赞赞赞赞赞赞赞赞赞★⊙⊙
⊙⊙⊙★赞赞赞赞赞赞赞★⊙⊙⊙
⊙⊙⊙⊙★赞赞赞赞赞★⊙⊙⊙⊙
⊙⊙⊙⊙⊙★赞赞赞★⊙⊙⊙⊙⊙
⊙⊙⊙⊙⊙⊙★赞★⊙⊙⊙⊙⊙⊙
⊙⊙⊙⊙⊙⊙⊙★⊙⊙⊙⊙⊙⊙⊙
⊙⊙⊙⊙⊙⊙⊙⊙⊙⊙⊙⊙⊙⊙⊙

支持๑۩۩..♥..۩۩๑[TTA+APE+MP3(320Kbps)]๑۩۩..♥..۩۩๑,支持高保真。

感谢伟大无私的楼主;

感谢伟大的互联网;

感谢伟大的下载工具;

感谢妈妈买的电脑;

感谢佛主赐予我们如此丰富的精神食量,阿门!o(∩_∩)o...
很好很強大~
555....
終于找到一次性比較全的了
找到了!!!!!!!!!膜拜~~
找到了,太好听了。
太好了!CLANNAD音乐终于收的差不多了
超级感谢的说~~~~~能找到这个真是太好了~~~~
很好 就是不知道偶rp怎木样了
狂爱Clannad啊……
感谢收下了 都是有爱之人啊