Yes -《大时代人物》(Big Generator)[MP3!]

Yes -《大时代人物》(Big Generator)[MP3!]
  • 片  名  Yes -《大时代人物》(Big Generator)[MP3!]
  • 简  介  发行时间: 2003年02月23日地区: 美国语言: 英语
  • 类  别  音乐
  • 小  类  欧美音乐


  • 详细介绍专辑英文名: Big Generator专辑中文名: 大时代人物歌手: Yes资源格式: MP3发行时间: 2003年02月23日地区: 美国语言: 英语简介:
    专辑封面:
    专辑介绍:
    怀恋:Yes推出的《Big Generator》专辑,很有收藏价值!
    歌词我会跟帖发布~
    第一个文件是我自己做的源,如果希望从这里下载,请进入 DonkeyServer No.1服务器
    周一至周五每天16:50之后~21:30保证供源 周六仅在 12:00~14:20暂停,然后立即恢复 周日9:30~21:00供源~嗯(已加入MP3 计划)
    第二个文件是在sharevirus搜索到的,和我这里的文件差不多~现在(刚开始的时候)下载源可能多一些~嗯
    希望各位喜欢,这是很YES经典的一部专辑
    代码MP3 320Kbps
    代码EAC extraction logfile from 23. February 2003, 20 49 for CD
    Yes / Big Generator
    Used drive PIONEER DVD-ROM DVD-105 Adapter 2 ID 0
    Read mode Secure with NO C2, accurate stream, disable cache
    Read offset correction 0
    Overread into Lead-In and Lead-Out No
    Used output format D Program Files eac09b4 mppenc.exe User Defined Encoder
    192 kBit/s
    Additional command line options --quality 7 --xlevel --ape2 --artist %a --title %t --album %g --releasedate %y --track %n --genre %m --comment Rip with EAC %s %d
    Other options
    Fill up missing offset samples with silence No
    Delete leading and trailing silent blocks No
    Installed external ASPI interface
    Track 1
    Filename D eDonkey - A graver zic encours mpc METAL Yes - Big Generator 01 - Rhythm Of Love.wav
    Peak level 99.4 %
    Track quality 100.0 %
    Test CRC 4311BA49
    Copy CRC 4311BA49
    Copy OK
    Track 2
    Filename D eDonkey - A graver zic encours mpc METAL Yes - Big Generator 02 - Big Generator.wav
    Peak level 95.3 %
    Track quality 100.0 %
    Test CRC 55FE0B9A
    Copy CRC 55FE0B9A
    Copy OK
    Track 3
    Filename D eDonkey - A graver zic encours mpc METAL Yes - Big Generator 03 - Shoot High Aim Low.wav
    Peak level 100.0 %
    Track quality 100.0 %
    Test CRC D886315E
    Copy CRC D886315E
    Copy OK
    Track 4
    Filename D eDonkey - A graver zic encours mpc METAL Yes - Big Generator 04 - Almost Like Love.wav
    Peak level 90.6 %
    Track quality 100.0 %
    Test CRC BEFADAF7
    Copy CRC BEFADAF7
    Copy OK
    Track 5
    Filename D eDonkey - A graver zic encours mpc METAL Yes - Big Generator 05 - Love Will Find A Way.wav
    Peak level 95.9 %
    Track quality 100.0 %
    Test CRC 04A007A0
    Copy CRC 04A007A0
    Copy OK
    Track 6
    Filename D eDonkey - A graver zic encours mpc METAL Yes - Big Generator 06 - Final Eyes.wav
    Peak level 95.1 %
    Track quality 100.0 %
    Test CRC 4536A023
    Copy CRC 4536A023
    Copy OK
    Track 7
    Filename D eDonkey - A graver zic encours mpc METAL Yes - Big Generator 07 - I m Running.wav
    Peak level 97.4 %
    Track quality 100.0 %
    Test CRC 1EEF886C
    Copy CRC 1EEF886C
    Copy OK
    Track 8
    Filename D eDonkey - A graver zic encours mpc METAL Yes - Big Generator 08 - Holy Lamb.wav
    Missing samples
    Peak level 0.0 %
    Track quality 98.6 %
    Test CRC 80E51066
    Copy finished
    End of status report
  • Yes -《大时代人物》(Big Generator)[MP3!]_large