李云迪 Yundi Li -《李斯特》(Liszt)FLAC分轨

李云迪 Yundi Li -《李斯特》(Liszt)FLAC分轨
  • 片  名  李云迪 Yundi Li -《李斯特》(Liszt)FLAC分轨
  • 简  介  无
  • 类  别  音乐
  • 小  类  古典音乐


  • 详细介绍专辑英文名: Liszt专辑中文名: 李斯特艺术家: 李云迪 Yundi Li版本: FLAC分轨简介:
    专辑介绍:
    李云迪这张唱片里,有极高难度且严肃的奏鸣曲占了唱片的百分之六十,另外约百分之四十是李斯特较罗漫帝克的作品,虽比奏鸣曲轻松,但绝不是没有难度的作品. 李斯特的作品总有一定的难度.
    里面这首奏鸣曲弹的技巧是好极了,可以说是当今数一数二的了. 李云迪对曲子所应表达的中心思想也抓得好,里面有邪恶的阴森显现以及与邪恶数度拼斗的紧张表达,许多矛盾心情,间中有宏伟上帝的存在之声,有胜力后轻松之表达,结尾是不能避免的生命的结束. 这一切,李云迪都恰当的表达出来,我听过其他八位名钢琴家弹奏这首曲子,我把李云迪列为数一数二.
    其他的曲子都令人很满意,特别是 Rigolleto,听李云迪弹这曲子真是一大享受,极象是几部声唱的一般,结尾的双手八度飞快弹奏真棒, 还没听过比这还快还准的呢 整张唱片唯一令我不满意的地方是这首 Tarantella, 我发现 Frederic Chiu 弹得比他好. 不过Frederic Chiu 的年级可是长他许多.二十岁的李云迪己经能弹得如同大师般的好,日后定能为中国人带来更多荣耀.
    肖邦和李斯特是世界音乐史上影响最大的钢琴家和作曲家,就其音乐风格来说,李斯特辉煌华丽、技巧高超、侧重外在表现,肖邦则侧重内在感情和诗意的表达。
    作为肖邦国际钢琴大赛的冠军得主,李云迪对肖邦作品的理解至演绎早在两年前已获得全世界的一致肯定。去年访港时已为第二张大碟做好部署:“我下个目标是李斯特”。这个20岁的年轻人不容许自己停下来,并要向高难度挑战。与肖邦同属浪漫派的李斯特拥有更多令人震撼的钢琴作品,其难度不单只在于超技巧的处理,还需丰富的情感表达,这正是对钢琴家的一大考验。整张大碟的制作,除了录音部分外,选曲便是李云迪最重视的环节。李斯特的作品共有数百首只多,李云迪挑选当中最具有意义的心爱作品,作为对乐迷甚至非古典乐迷的推介。
    以下是西方乐评人士给这张CD的评语:
    李云迪演奏的李斯特的奏鸣曲没有丑陋的声音,没有不必要的太大的声量,也没有呆板,或迟顿的节奏.他似乎不须吹嘘之力就能把最好的技巧显现出来. 不但如此,更重要的是他对曲子理解的成程度也不亚於技巧.李云迪弹这首曲子开始时没那么激动,但是慢慢的到了须要表达有英雄气概的地方,他即更激动了. 到了Andante sostenuto 的地方,他对轻声的控制做得很好,rubato 也做得很好,弹得越来越精彩,最后以娴静似天堂之声结束整首曲子.
  • 李云迪 Yundi Li -《李斯特》(Liszt)FLAC分轨_large

精选评论

里面的第7首听不了
好东西不想错过,顶!不过看楼上说第7首听不了,很遗憾,先下来听了试试。
第七首没问题。谢过楼主。
S178第一第二乐章分轨有问题。
很久之前就知道李云迪了.那个时候朗朗是谁啊.
支持
支持李云迪

CUE文件参考:
PERFORMER "Yundi Li"
TITLE "Franz Liszt"
FILE "01 - Franz Liszt - Piano Sonata in B Minor (S 178), Lento assai - Allegro energico.flac" WAVE
TRACK 01 AUDIO
TITLE "01 - Franz Liszt - Piano Sonata in B Minor (S 178), Lento assai - Allegro energico"
PERFORMER "Yundi Li"
INDEX 01 00:00:00
FILE "02 - Franz Liszt - Piano Sonata in B Minor (S 178), Grandioso - Recitativo.flac" WAVE
TRACK 02 AUDIO
TITLE "02 - Franz Liszt - Piano Sonata in B Minor (S 178), Grandioso - Recitativo"
PERFORMER "Yundi Li"
INDEX 01 00:00:00
FILE "03 - Franz Liszt - Piano Sonata in B Minor (S 178), Andante sostenuto.flac" WAVE
TRACK 03 AUDIO
TITLE "03 - Franz Liszt - Piano Sonata in B Minor (S 178), Andante sostenuto"
PERFORMER "Yundi Li"
INDEX 01 00:00:00
FILE "04 - Franz Liszt - Piano Sonata in B Minor (S 178), Allegro energico - Andante sostenuto - Lento assai.flac" WAVE
TRACK 04 AUDIO
TITLE "04 - Franz Liszt - Piano Sonata in B Minor (S 178), Allegro energico - Andante sostenuto - Lento assai"
PERFORMER "Yundi Li"
INDEX 01 00:00:00
FILE "05 - Franz Liszt - La Campanella (S 140).flac" WAVE
TRACK 05 AUDIO
TITLE "05 - Franz Liszt - La Campanella (S 140)"
PERFORMER "Yundi Li"
INDEX 01 00:00:00
FILE "06 - Franz Liszt - Liebeslied after Schumann (S 566).flac" WAVE
TRACK 06 AUDIO
TITLE "06 - Franz Liszt - Liebeslied after Schumann (S 566)"
PERFORMER "Yundi Li"
INDEX 01 00:00:00
FILE "07 - Franz Liszt - Liebestraum No.3 in A flat, No.3(S 541).flac" WAVE
TRACK 07 AUDIO
TITLE "07 - Franz Liszt - Liebestraum No.3 in A flat, No.3(S 541)"
PERFORMER "Yundi Li"
INDEX 01 00:00:00
FILE "08 - Franz Liszt - Tarantella (S 162).flac" WAVE
TRACK 08 AUDIO
TITLE "08 - Franz Liszt - Tarantella (S 162)"
PERFORMER "Yundi Li"
INDEX 01 00:00:00
FILE "09 - Franz Liszt - Concert Paraphrase on Rigoletto, S.434 after Verdi's opera(S 434).flac" WAVE
TRACK 09 AUDIO
TITLE "09 - Franz Liszt - Concert Paraphrase on Rigoletto, S.434 after Verdi's opera(S 434)"
PERFORMER "Yundi Li"
INDEX 01 00:00:00
钢琴家也要长得养眼点啊……我本来想埋怨楼主没把封面什么的一块儿打包,结果回来一看,这封面真的不怎么样……
这张不错,李斯特我听得很少,但这张是能够听得下去的少数几张之一。
听听听@!~
云迪的演奏确实适合用FLAC来抓,感谢LZ的好资源!
李云迪的都收藏了,也都要支持一下
能弹好钟不是一件容易的事 完美 赞!!