《旋风管家角色CD》(Hayate the Combat Butler)[Character CD4-桂ヒナギク][伊藤静][含Booklet][APE]

《旋风管家角色CD》(Hayate the Combat Butler)[Character CD4-桂ヒナギク][伊藤静][含Booklet][APE]
  • 片  名  《旋风管家角色CD》(Hayate the Combat Butler)[Character CD4-桂ヒナギク][伊藤静][含Booklet][APE]
  • 简  介  发行时间: 2007年07月25日对白语言: 日语
  • 类  别  动漫
  • 小  类  动漫周边


  • 详细介绍中文名: 旋风管家角色CD英文名: Hayate the Combat Butler别名: ハヤテのごとく 版本: [Character CD4-桂ヒナギク][伊藤静][含Booklet][APE]发行时间: 2007年07月25日地区: 日本对白语言: 日语简介:
    【剧情介绍】
    故事讲述了公立高中一年级生的绫崎飒,因其父母性格懒散,使得他不得不每天都打工养家。圣诞夜,回到家中的绫崎飒发现父母留给他一张白条,原来,父母欠下了一亿五千万日圆债务后逃之夭夭。为了还债甚至还企图贩卖绫崎飒的器官(太无良了)。被黑道追杀走投无路的绫崎飒,妄图绑架附近公园的少女换取赎金,冲过去就对少女说“我……需要你(当人质,当然这后面 3个字还没出口)”,阴差阳错再加层层误会之下,绫崎飒反倒成了少女的救命恩人。怎知这位少女正是三千院财阀大小姐,为了报答救命之恩她雇用了绫崎飒当管家,并且偿还了他的债务。但是好人绫崎飒却坚持要偿还这笔钱,于是,绫崎飒的管家生活就此开始……
    【专辑介绍】
    「ハヤテのごとく 」キャラクターCD 4 桂ヒナギク
    商品番号: GNCA-58
    メディア: CD
    組枚数: 1
    発売日: 2007/07/25
    価格: 1260円(税込)
    【アーティスト/ キャスト】
    伊藤静 (アーティスト) くまのきよみ (作詞者) 
    田中公平 (作曲者) マイクスギヤマ (作詞者) 
    岩崎文紀 (編曲者)
    内容
    テレビ東京系アニメ「ハヤテのごとく 」キャラクターCDシリーズ 超豪華な声優陣によるキャラクター全12枚を隔月2枚ずつリリース。第4弾は、満を持して「読者No.1キャラ」桂ヒナギク(starring: 伊藤静)登場 音楽は田中公平が担当。キャラクターソング2曲(+カラオケ)、コミックカバー下でお馴染みの「神様」をMCに迎えたショートドラマ、更に「お好きに使える」セリフ集 お名前集を収録。ジャケットイラストは原作・畑健二郎 川口監督のコラボレートによる描き下ろし。
    【收录曲目】
    01.イントロダクション「生徒会長からお礼の辞~清く正しい、ごくスタンダードな挨拶」
    02.Power of Flower
    03.ショート・ドラマ「神様インタビュー/ヒナギク編~ヒナギク、寝起きを襲われるの巻」
    04.白皇学院生徒会心得
    05.Power of Flower(オリジナル・カラオケ)
    06.白皇学院生徒会心得(オリジナル・カラオケ)
    07.あの、取りあえずいろいろ入れておくから、みなさんの好きに使ってね ヒナギク編
    08.ただ今、留守にしております。ご用のある方はメッセージをどうぞ
    09.ほら、朝よ 早く起きて起きて
    10.ユー・ガッタ・メール メールが届いたわ。
    11.チャララ~ン。パソコンを起動するわよ。
    12.ドカーン パソコンを破壊したわ
    13.タイマー録画を開始するわ。
    14.目的地を入力して。適切なルートを表示するわ。
    15.ム。どうやらこの道は渋滞してるようね。
    16.バックします、バックします、バックします。
    17.あ。お湯がわいたみたいよ。
    18.あの。そろそろお湯を入れて3分だけど?
    19.ム……ダンスの練習をする時は、カーテンの閉め忘れに気をつけなさい。
    20.お酒は、二十歳になってからよ。
    21.行っていらっしゃい 忘れ物はないわね?
    22.レンタルビデオの返却日が近付いているわ
    23.土日は半額レンタルよ
    24.そ、そんなの借りて……お、男のコってみんな、やっぱそーゆーのに興味あるわけ?
    25.アマゾンからのお届けものよ
    26.これのMサイ
  • 《旋风管家角色CD》(Hayate the Combat Butler)[Character CD4-桂ヒナギク][伊藤静][含Booklet][APE]_large

精选评论

CATALOG 4988102490225
PERFORMER "桂ヒナギク (伊藤静)"
TITLE "ハヤテのごとく! キャラクターCD4 桂ヒナギク"
FILE "CDImage.ape" WAVE
TRACK 01 AUDIO
TITLE "イントロダクション 「生徒会長からお礼の辞~清く正しい、ごくスタンダードな挨拶」"
PERFORMER "桂ヒナギク (伊藤静)"
ISRC JPPI00756410
INDEX 01 00:00:00
TRACK 02 AUDIO
TITLE "Power of Flower"
PERFORMER "桂ヒナギク (伊藤静)"
ISRC JPPI00756420
INDEX 01 01:10:43
TRACK 03 AUDIO
TITLE "ショート?ドラマ 「神様インタビュー/ヒナギク編~ヒナギク、寝起きを襲われるの巻」"
PERFORMER "桂ヒナギク (伊藤静)"
ISRC JPPI00756430
INDEX 01 05:26:61
TRACK 04 AUDIO
TITLE "白皇学院生徒会心得"
PERFORMER "桂ヒナギク (伊藤静)"
ISRC JPPI00756440
INDEX 01 11:35:27
TRACK 05 AUDIO
TITLE "Power of Flower (オリジナル?カラオケ)"
PERFORMER "桂ヒナギク (伊藤静)"
ISRC JPPI00756429
INDEX 00 16:07:57
INDEX 01 16:10:32
TRACK 06 AUDIO
TITLE "白皇学院生徒会心得 (オリジナル?カラオケ)"
PERFORMER "桂ヒナギク (伊藤静)"
ISRC JPPI00756449
INDEX 00 20:26:60
INDEX 01 20:28:73
TRACK 07 AUDIO
TITLE "あの、取りあえずいろいろ入れておくから、みなさんの好きに使ってね ヒナギク編"
PERFORMER "桂ヒナギク (伊藤静)"
ISRC JPPI00756450
INDEX 00 25:01:28
INDEX 01 25:05:11
TRACK 08 AUDIO
TITLE "ただ今、留守にしております。ご用のある方はメッセージをどうぞ"
PERFORMER "桂ヒナギク (伊藤静)"
ISRC JPPI00756460
INDEX 00 25:11:47
INDEX 01 25:14:22
TRACK 09 AUDIO
TITLE "ほら、朝よ 早く起きて起きて!"
PERFORMER "桂ヒナギク (伊藤静)"
ISRC JPPI00756470
INDEX 01 25:21:57
TRACK 10 AUDIO
TITLE "ユー?ガッタ?メール メールが届いたわ。"
PERFORMER "桂ヒナギク (伊藤静)"
ISRC JPPI00756480
INDEX 01 25:28:24
TRACK 11 AUDIO
TITLE "チャララ~ン。パソコンを起動するわよ。"
PERFORMER "桂ヒナギク (伊藤静)"
ISRC JPPI00756490
INDEX 01 25:34:36
TRACK 12 AUDIO
TITLE "ドカーン!パソコンを破壊したわ!"
PERFORMER "桂ヒナギク (伊藤静)"
ISRC JPPI00756500
INDEX 01 25:40:59
TRACK 13 AUDIO
TITLE "タイマー録画を開始するわ。"
PERFORMER "桂ヒナギク (伊藤静)"
ISRC JPPI00756510
INDEX 01 25:46:70
TRACK 14 AUDIO
TITLE "目的地を入力して。適切なルートを表示するわ。"
PERFORMER "桂ヒナギク (伊藤静)"
ISRC JPPI00756520
INDEX 01 25:52:10
TRACK 15 AUDIO
TITLE "ム。どうやらこの道は渋滞してるようね。"
PERFORMER "桂ヒナギク (伊藤静)"
ISRC JPPI00756530
INDEX 01 25:58:74
TRACK 16 AUDIO
TITLE "バックします、バックします、バックします。"
PERFORMER "桂ヒナギク (伊藤静)"
ISRC JPPI00756540
INDEX 01 26:06:18
TRACK 17 AUDIO
TITLE "あ。お湯がわいたみたいよ。"
PERFORMER "桂ヒナギク (伊藤静)"
ISRC JPPI00756550
INDEX 01 26:13:54
TRACK 18 AUDIO
TITLE "あの。そろそろお湯を入れて3分だけど?"
PERFORMER "桂ヒナギク (伊藤静)"
ISRC JPPI00756560
INDEX 01 26:19:38
TRACK 19 AUDIO
TITLE "ム……ダンスの練習をする時は、カーテンの閉め忘れに気をつけなさい。"
PERFORMER "桂ヒナギク (伊藤静)"
ISRC JPPI00756570
INDEX 01 26:26:39
TRACK 20 AUDIO
TITLE "お酒は、二十歳になってからよ。"
PERFORMER "桂ヒナギク (伊藤静)"
ISRC JPPI00756580
INDEX 00 26:33:01
INDEX 01 26:35:52
TRACK 21 AUDIO
TITLE "行っていらっしゃい 忘れ物はないわね?"
PERFORMER "桂ヒナギク (伊藤静)"
ISRC JPPI00756590
INDEX 01 26:41:14
TRACK 22 AUDIO
TITLE "レンタルビデオの返却日が近付いているわ"
PERFORMER "桂ヒナギク (伊藤静)"
ISRC JPPI00756600
INDEX 01 26:47:00
TRACK 23 AUDIO
TITLE "土日は半額レンタルよ"
PERFORMER "桂ヒナギク (伊藤静)"
ISRC JPPI00756600
INDEX 01 26:52:63
TRACK 24 AUDIO
TITLE "そ、そんなの借りて……お、男のコってみんな、やっぱそーゆーのに興味あるわけ?"
PERFORMER "桂ヒナギク (伊藤静)"
ISRC JPPI00756620
INDEX 01 26:58:09
TRACK 25 AUDIO
TITLE "アマゾンからのお届けものよ"
PERFORMER "桂ヒナギク (伊藤静)"
ISRC JPPI00756630
INDEX 00 27:05:17
INDEX 01 27:07:67
TRACK 26 AUDIO
TITLE "これのMサイズはありますか?"
PERFORMER "桂ヒナギク (伊藤静)"
ISRC JPPI00756640
INDEX 01 27:13:06
TRACK 27 AUDIO
TITLE "特盛りでお願いします。"
PERFORMER "桂ヒナギク (伊藤静)"
ISRC JPPI00756650
INDEX 01 27:18:29
TRACK 28 AUDIO
TITLE "汁ダクでお願いするわ!"
PERFORMER "桂ヒナギク (伊藤静)"
ISRC JPPI00756660
INDEX 01 27:23:09
TRACK 29 AUDIO
TITLE "生卵もつけてください。"
PERFORMER "桂ヒナギク (伊藤静)"
ISRC JPPI00756670
INDEX 01 27:28:02
TRACK 30 AUDIO
TITLE "紙幣のお釣りを取り忘れているわ。"
PERFORMER "桂ヒナギク (伊藤静)"
ISRC JPPI00756680
INDEX 01 27:33:03
TRACK 31 AUDIO
TITLE "危ないから白線の内側に下がって"
PERFORMER "桂ヒナギク (伊藤静)"
ISRC JPPI00756690
INDEX 01 27:38:47
TRACK 32 AUDIO
TITLE "おはよう 今日も一日、頑張りましょう。"
PERFORMER "桂ヒナギク (伊藤静)"
ISRC JPPI00756700
INDEX 01 27:44:59
TRACK 33 AUDIO
TITLE "ちょっと。授業中は居眠りしちゃダメよ"
PERFORMER "桂ヒナギク (伊藤静)"
ISRC JPPI00756710
INDEX 01 27:50:68
TRACK 34 AUDIO
TITLE "えっ。ノート写させてくれって……。ム、仕方ないわね。今回だけよ"
PERFORMER "桂ヒナギク (伊藤静)"
ISRC JPPI00756720
INDEX 01 27:57:72
TRACK 35 AUDIO
TITLE "先生。保健室に行ってもいいですか?"
PERFORMER "桂ヒナギク (伊藤静)"
ISRC JPPI00756730
INDEX 00 28:06:16
INDEX 01 28:08:66
TRACK 36 AUDIO
TITLE "先生。今日の体育、見学でもいいですか。"
PERFORMER "桂ヒナギク (伊藤静)"
ISRC JPPI00756740
INDEX 01 28:15:08
TRACK 37 AUDIO
TITLE "ね。一緒にお弁当食べても、いい?"
PERFORMER "桂ヒナギク (伊藤静)"
ISRC JPPI00756750
INDEX 01 28:21:68
TRACK 38 AUDIO
TITLE "べ、別にあなたの事が好きだとか、そーゆーわけじゃないからね!誤解しないでよ。"
PERFORMER "桂ヒナギク (伊藤静)"
ISRC JPPI00756760
INDEX 01 28:28:17
TRACK 39 AUDIO
TITLE "こらっ。校則違反はおしおきよ"
PERFORMER "桂ヒナギク (伊藤静)"
ISRC JPPI00756770
INDEX 00 28:34:55
INDEX 01 28:37:31
TRACK 40 AUDIO
TITLE "罰として、そうねグラウンド10周"
PERFORMER "桂ヒナギク (伊藤静)"
ISRC JPPI00756780
INDEX 01 28:44:02
TRACK 41 AUDIO
TITLE "あとで道場にいらっしゃい。二人っきりで、稽古をつけてあげる"
PERFORMER "桂ヒナギク (伊藤静)"
ISRC JPPI00756790
INDEX 00 28:49:03
INDEX 01 28:51:53
TRACK 42 AUDIO
TITLE "メーンっ!"
PERFORMER "桂ヒナギク (伊藤静)"
ISRC JPPI00756800
INDEX 00 28:56:41
INDEX 01 28:59:17
TRACK 43 AUDIO
TITLE "胴ーっ!"
PERFORMER "桂ヒナギク (伊藤静)"
ISRC JPPI00756810
INDEX 01 29:03:19
TRACK 44 AUDIO
TITLE "小手ーっ!"
PERFORMER "桂ヒナギク (伊藤静)"
ISRC JPPI00756820
INDEX 01 29:07:22
TRACK 45 AUDIO
TITLE "勝負あった!そこまで!"
PERFORMER "桂ヒナギク (伊藤静)"
ISRC JPPI00756830
INDEX 01 29:11:30
TRACK 46 AUDIO
TITLE "今日は、二人で勉強しない?"
PERFORMER "桂ヒナギク (伊藤静)"
ISRC JPPI00756840
INDEX 01 29:16:53
TRACK 47 AUDIO
TITLE "もう~、こんな問題もできないの?しょうがないわね。私が教えてあげる"
PERFORMER "桂ヒナギク (伊藤静)"
ISRC JPPI00756850
INDEX 01 29:21:73
TRACK 48 AUDIO
TITLE "そろそろ帰るわよ。"
PERFORMER "桂ヒナギク (伊藤静)"
ISRC JPPI00756860
INDEX 00 29:29:30
INDEX 01 29:32:06
TRACK 49 AUDIO
TITLE "ね、ちょっと寄り道しちゃおうか"
PERFORMER "桂ヒナギク (伊藤静)"
ISRC JPPI00756870
INDEX 01 29:36:68
TRACK 50 AUDIO
TITLE "ただいまー"
PERFORMER "桂ヒナギク (伊藤静)"
ISRC JPPI00756880
INDEX 01 29:42:40
TRACK 51 AUDIO
TITLE "おかえりなさい"
PERFORMER "桂ヒナギク (伊藤静)"
ISRC JPPI00756890
INDEX 01 29:47:00
TRACK 52 AUDIO
TITLE "それじゃ、いただきます"
PERFORMER "桂ヒナギク (伊藤静)"
ISRC JPPI00756900
INDEX 01 29:51:25
TRACK 53 AUDIO
TITLE "あら、口のまわりにカレーが付いてるわよ。いま拭くから、目を閉じてじっとしててね"
PERFORMER "桂ヒナギク (伊藤静)"
ISRC JPPI00756910
INDEX 01 29:56:20
TRACK 54 AUDIO
TITLE "と、油断させてみぞおちドスッ!"
PERFORMER "桂ヒナギク (伊藤静)"
ISRC JPPI00756920
INDEX 00 30:03:48
INDEX 01 30:06:23
TRACK 55 AUDIO
TITLE "ごちそうさまでした"
PERFORMER "桂ヒナギク (伊藤静)"
ISRC JPPI00756930
INDEX 01 30:12:61
TRACK 56 AUDIO
TITLE "あの、お風呂わいてるけど。"
PERFORMER "桂ヒナギク (伊藤静)"
ISRC JPPI00756940
INDEX 01 30:17:37
TRACK 57 AUDIO
TITLE "こらっ!覗いちゃダメじゃない。"
PERFORMER "桂ヒナギク (伊藤静)"
ISRC JPPI00756950
INDEX 01 30:23:18
TRACK 58 AUDIO
TITLE "ちょっ!やっ!お……お化け~!"
PERFORMER "桂ヒナギク (伊藤静)"
ISRC JPPI00756960
INDEX 01 30:29:15
TRACK 59 AUDIO
TITLE "お、お姉ちゃ~ん"
PERFORMER "桂ヒナギク (伊藤静)"
ISRC JPPI00756970
INDEX 01 30:35:12
TRACK 60 AUDIO
TITLE "た、助けてヒナえも~ん!"
PERFORMER "桂ヒナギク (伊藤静)"
ISRC JPPI00756980
INDEX 01 30:40:68
TRACK 61 AUDIO
TITLE "こ、この事は絶対に、二人だけの秘密だからね!"
PERFORMER "桂ヒナギク (伊藤静)"
ISRC JPPI00756990
INDEX 01 30:47:32
TRACK 62 AUDIO
TITLE "じゃあ、そろそろ寝ましょうか。"
PERFORMER "桂ヒナギク (伊藤静)"
ISRC JPPI00757000
INDEX 01 30:54:61
TRACK 63 AUDIO
TITLE "おやすみなさい。また明日ね"
PERFORMER "桂ヒナギク (伊藤静)"
ISRC JPPI00757010
INDEX 01 31:00:01
TRACK 64 AUDIO
TITLE "しっかり!ガンバッて"
PERFORMER "桂ヒナギク (伊藤静)"
ISRC JPPI00757020
INDEX 01 31:05:40
TRACK 65 AUDIO
TITLE "おめでとう!今日は二人っきりでお祝いしましょう"
PERFORMER "桂ヒナギク (伊藤静)"
ISRC JPPI00757030
INDEX 01 31:11:02
TRACK 66 AUDIO
TITLE "卒業しても、いいお友達でいましょうね"
PERFORMER "桂ヒナギク (伊藤静)"
ISRC JPPI00757040
INDEX 01 31:17:50
TRACK 67 AUDIO
TITLE "桂さんじゃなくて、ヒナギクと呼びなさい。"
PERFORMER "桂ヒナギク (伊藤静)"
ISRC JPPI00757050
INDEX 01 31:24:00
TRACK 68 AUDIO
TITLE "ふふっ。少しぐらいワガママ言わないと、幸せつかみそこねるわよ。"
PERFORMER "桂ヒナギク (伊藤静)"
ISRC JPPI00757060
INDEX 01 31:30:47
TRACK 69 AUDIO
TITLE "それではこれより、白皇学院生徒会定例会議を始めます。"
PERFORMER "桂ヒナギク (伊藤静)"
ISRC JPPI00757070
INDEX 00 31:37:18
INDEX 01 31:39:69
TRACK 70 AUDIO
TITLE "世界を、革命しない力を!"
PERFORMER "桂ヒナギク (伊藤静)"
ISRC JPPI00757080
INDEX 00 31:44:63
INDEX 01 31:47:38
TRACK 71 AUDIO
TITLE "ムム。言葉の意味はよくわからないけど、とにかくすごい自信ね!"
PERFORMER "桂ヒナギク (伊藤静)"
ISRC JPPI00757090
INDEX 01 31:53:25
TRACK 72 AUDIO
TITLE "……この、人物の名は?"
PERFORMER "桂ヒナギク (伊藤静)"
ISRC JPPI00757100
INDEX 00 31:59:66
INDEX 01 32:02:41
TRACK 73 AUDIO
TITLE "福沢諭吉っ!また来週っ!ニジュウゴ~、チャララッ"
PERFORMER "桂ヒナギク (伊藤静)"
ISRC JPPI00757110
INDEX 01 32:07:35
TRACK 74 AUDIO
TITLE "なおくん"
PERFORMER "桂ヒナギク (伊藤静)"
ISRC JPPI00757120
INDEX 00 32:13:01
INDEX 01 32:15:52
TRACK 75 AUDIO
TITLE "なおとくん"
PERFORMER "桂ヒナギク (伊藤静)"
ISRC JPPI00757130
INDEX 01 32:19:74
TRACK 76 AUDIO
TITLE "なおひこくん"
PERFORMER "桂ヒナギク (伊藤静)"
ISRC JPPI00757140
INDEX 01 32:24:29
TRACK 77 AUDIO
TITLE "なつおくん"
PERFORMER "桂ヒナギク (伊藤静)"
ISRC JPPI00757150
INDEX 01 32:28:56
TRACK 78 AUDIO
TITLE "なりまさくん"
PERFORMER "桂ヒナギク (伊藤静)"
ISRC JPPI00757160
INDEX 01 32:33:04
TRACK 79 AUDIO
TITLE "なるあきくん"
PERFORMER "桂ヒナギク (伊藤静)"
ISRC JPPI00757170
INDEX 01 32:37:43
TRACK 80 AUDIO
TITLE "なるとくん"
PERFORMER "桂ヒナギク (伊藤静)"
ISRC JPPI00757180
INDEX 01 32:42:00
TRACK 81 AUDIO
TITLE "なるやくん"
PERFORMER "桂ヒナギク (伊藤静)"
ISRC JPPI00757180
INDEX 01 32:46:21
TRACK 82 AUDIO
TITLE "にじひでくん"
PERFORMER "桂ヒナギク (伊藤静)"
ISRC JPPI00757200
INDEX 01 32:50:51
TRACK 83 AUDIO
TITLE "にじまさくん"
PERFORMER "桂ヒナギク (伊藤静)"
ISRC JPPI00757210
INDEX 01 32:55:20
TRACK 84 AUDIO
TITLE "のぶまさくん"
PERFORMER "桂ヒナギク (伊藤静)"
ISRC JPPI00757220
INDEX 01 32:59:51
TRACK 85 AUDIO
TITLE "のぞみくん"
PERFORMER "桂ヒナギク (伊藤静)"
ISRC JPPI00757230
INDEX 01 33:04:23
TRACK 86 AUDIO
TITLE "のぶあきくん"
PERFORMER "桂ヒナギク (伊藤静)"
ISRC JPPI00757240
INDEX 01 33:08:48
TRACK 87 AUDIO
TITLE "のぶおくん"
PERFORMER "桂ヒナギク (伊藤静)"
ISRC JPPI00757250
INDEX 01 33:13:12
TRACK 88 AUDIO
TITLE "のぶひこくん"
PERFORMER "桂ヒナギク (伊藤静)"
ISRC JPPI00757260
INDEX 01 33:17:37
TRACK 89 AUDIO
TITLE "のぶよしくん"
PERFORMER "桂ヒナギク (伊藤静)"
ISRC JPPI00757270
INDEX 01 33:21:64
TRACK 90 AUDIO
TITLE "のりあきくん"
PERFORMER "桂ヒナギク (伊藤静)"
ISRC JPPI00757280
INDEX 01 33:26:22
TRACK 91 AUDIO
TITLE "のりおくん"
PERFORMER "桂ヒナギク (伊藤静)"
ISRC JPPI00757290
INDEX 01 33:30:45
TRACK 92 AUDIO
TITLE "のりたけくん"
PERFORMER "桂ヒナギク (伊藤静)"
ISRC JPPI00757300
INDEX 01 33:35:03
TRACK 93 AUDIO
TITLE "あきらくん"
PERFORMER "桂ヒナギク (伊藤静)"
ISRC JPPI00757310
INDEX 01 33:39:29
TRACK 94 AUDIO
TITLE "かずしげくん"
PERFORMER "桂ヒナギク (伊藤静)"
ISRC JPPI00757320
INDEX 01 33:43:55
TRACK 95 AUDIO
TITLE "しゅういちくん"
PERFORMER "桂ヒナギク (伊藤静)"
ISRC JPPI00757330
INDEX 01 33:48:09
TRACK 96 AUDIO
TITLE "トミーくん"
PERFORMER "桂ヒナギク (伊藤静)"
ISRC JPPI00757340
INDEX 01 33:52:32
TRACK 97 AUDIO
TITLE "なかとしくん"
PERFORMER "桂ヒナギク (伊藤静)"
ISRC JPPI00757350
INDEX 01 33:56:52
TRACK 98 AUDIO
TITLE "今回のキーワード"
PERFORMER "桂ヒナギク (伊藤静)"
ISRC JPPI00757360
INDEX 01 34:02:46