Cassandra Wilson -《Thunderbird 》[APE]

Cassandra Wilson -《Thunderbird 》[APE]
  • 片  名  Cassandra Wilson -《Thunderbird 》[APE]
  • 简  介  发行时间: 2006年地区: 美国语言: 英语
  • 类  别  音乐
  • 小  类  欧美音乐


  • 详细介绍专辑中文名: Thunderbird歌手: Cassandra Wilson资源格式: APE发行时间: 2006年地区: 美国语言: 英语简介:
    专辑介绍:
    在当代爵士女伶中,Cassandra Wilson是我最喜欢的,这也许跟她非常喜欢Miles Davis、以及她对黑人蓝调传统一直很迷恋有关(没有了蓝调,爵士就像丢了魂)。T-Bone Burnett这位虽只出过两三张个人专辑,但那张1992年的《The Criminal Under My Own Hat》(文德斯也说这是张经典,所以在电影《Don t Come Knocking》请他做音乐总监),而他为他Sam Phillips监制的唱片也相当好听(当然,他最风头的一次还是为Coen兄弟电影《逃狱三王》监制的音乐,让蓝草老头得了一堆格莱美)。
    好了,这两位好人又遇到一起了。Cassandra Wilson的这张新作是她与T-Bone Burnett合作的产物,但它并不是一张清新的爵士乡谣作品,相反,它的Fusion味相当重,爵士、乡谣、蓝调与电子节奏一起上,尤其是浓郁的电子节拍会给我留下深刻印象。Cassandra Wilson沧桑暗哑的歌喉自然已是炉火纯青,整张唱片的舞曲节奏加上一贯韧劲十足的贝司弹奏更是令人回味无穷。
  • Cassandra Wilson -《Thunderbird 》[APE]_large

精选评论

Cassandra Wilson的歌确实好听,只是下载速度不快,慢慢等吧。
俺喜欢蓝调的,特别是无损的一定要收~~
REM DISCID 9A11560B
REM COMMENT "ExactAudioCopy v0.95b3"
CATALOG 0094635587623
PERFORMER "Cassandra Wilson "
TITLE "Thunderbird"
FILE "Cassandra Wilson - Thunderbird.ape" WAVE
TRACK 01 AUDIO
TITLE "01. Go to Mexico"
PERFORMER "Cassandra Wilson "
ISRC USBN20500243
INDEX 01 00:00:00
TRACK 02 AUDIO
TITLE "02. Closer to you"
PERFORMER "Cassandra Wilson "
ISRC USBN20500242
INDEX 01 04:14:60
TRACK 03 AUDIO
TITLE "03. Easy rider"
PERFORMER "Cassandra Wilson "
ISRC USBN20500247
INDEX 01 10:04:00
TRACK 04 AUDIO
TITLE "04. It would be so easy"
PERFORMER "Cassandra Wilson "
ISRC USBN20500245
INDEX 01 17:07:52
TRACK 05 AUDIO
TITLE "05. Red river valley"
PERFORMER "Cassandra Wilson "
ISRC USBN20500246
INDEX 01 22:17:70
TRACK 06 AUDIO
TITLE "06. Poet"
PERFORMER "Cassandra Wilson "
ISRC USBN20500248
INDEX 01 28:10:30
TRACK 07 AUDIO
TITLE "07. I want to be loved"
PERFORMER "Cassandra Wilson "
ISRC USBN20500250
INDEX 00 33:37:31
INDEX 01 33:37:32
TRACK 08 AUDIO
TITLE "08. Lost"
PERFORMER "Cassandra Wilson "
ISRC USBN20500253
INDEX 01 37:40:62
TRACK 09 AUDIO
TITLE "09. Strike a match"
PERFORMER "Cassandra Wilson "
ISRC USBN20500251
INDEX 00 41:15:28
INDEX 01 41:15:32
TRACK 10 AUDIO
TITLE "10. Tarot"
PERFORMER "Cassandra Wilson "
ISRC USBN20500249
INDEX 01 46:03:07


感谢~