群星 -《怡人唱片-汽车专用极品大碟10.绝对经典.黑胶CD》[APE]

群星 -《怡人唱片-汽车专用极品大碟10.绝对经典.黑胶CD》[APE]
  • 片  名  群星 -《怡人唱片-汽车专用极品大碟10.绝对经典.黑胶CD》[APE]
  • 简  介  音乐风格: 流行发行时间: 2008年地区: 大陆语言: 普通话
  • 类  别  音乐
  • 小  类  华语音乐


  • 详细介绍专辑中文名: 怡人唱片-汽车专用极品大碟10.绝对经典.黑胶CD歌手: 群星音乐风格: 流行资源格式: APE发行时间: 2008年地区: 大陆语言: 普通话简介: 发行:怡人唱片
    出版:广东音像出版社
    ISRC:CN-18-07-512-00/A.A6
    专辑介绍:
    《汽车专用极品大碟》系列高品质HI-FI唱片就是针对车内空间狭小的特性精心策划、专业制作而成的,有别于普通唱片的一套产品,在不会影响驾驶安全的前提下,让你的弛骋轻松欢愉,让你的旅程洋溢着舒心的情调……
  • 群星 -《怡人唱片-汽车专用极品大碟10.绝对经典.黑胶CD》[APE]_large

精选评论

CUE文件名: 群星.-.[怡人唱片-汽车专用极品大碟10.绝对经典.黑胶CD].(ape).cue
======================================================
PERFORMER "群星"
TITLE "怡人唱片-汽车专用极品大碟10.绝对经典.黑胶CD"
FILE "群星.-.[怡人唱片-汽车专用极品大碟10.绝对经典.黑胶CD].(ape).ape" WAVE
TRACK 01 AUDIO
TITLE "想起"
PERFORMER "群星"
INDEX 01 00:00:00
TRACK 02 AUDIO
TITLE "蓝月亮"
PERFORMER "群星"
INDEX 00 04:44:22
INDEX 01 04:46:22
TRACK 03 AUDIO
TITLE "情缘"
PERFORMER "群星"
INDEX 00 08:39:67
INDEX 01 08:41:67
TRACK 04 AUDIO
TITLE "菊花台"
PERFORMER "群星"
INDEX 00 13:12:34
INDEX 01 13:14:34
TRACK 05 AUDIO
TITLE "怕你为自己流泪"
PERFORMER "群星"
INDEX 00 18:03:27
INDEX 01 18:05:27
TRACK 06 AUDIO
TITLE "野花"
PERFORMER "群星"
INDEX 00 22:38:71
INDEX 01 22:40:71
TRACK 07 AUDIO
TITLE "自在"
PERFORMER "群星"
INDEX 00 26:52:18
INDEX 01 26:54:18
TRACK 08 AUDIO
TITLE "神香"
PERFORMER "群星"
INDEX 00 32:08:11
INDEX 01 32:10:11
TRACK 09 AUDIO
TITLE "回到拉萨"
PERFORMER "群星"
INDEX 00 37:06:31
INDEX 01 37:08:31
TRACK 10 AUDIO
TITLE "想着你睡不着"
PERFORMER "群星"
INDEX 00 41:56:54
INDEX 01 41:58:54
TRACK 11 AUDIO
TITLE "生如夏花"
PERFORMER "群星"
INDEX 00 46:30:05
INDEX 01 46:32:05
TRACK 12 AUDIO
TITLE "怒放的生命"
PERFORMER "群星"
INDEX 00 52:11:41
INDEX 01 52:13:41
TRACK 13 AUDIO
TITLE "月亮女儿"
PERFORMER "群星"
INDEX 00 57:15:23
INDEX 01 57:17:23

===============================================
13个单曲.WAV经auCDtect.exe软件检测全部符合CDDA概率99-100%。
===============================================
呵呵,终于首页支持了,买车去
试听一下,谢谢楼主分享,虽然偶的汽车音响不咋样,呵呵
为什么是汽车专用?别的地方不可以听?我就准备在飞机上试试。。。
下来听听
我用破电脑听
我也用电脑听听!
汽车专用极品大碟10出来了,感谢楼主。不过令人不解的是,此系列无损第9张却是踏遍网络无觅处。怪了。
感谢楼主!!!
谢谢版主,看去不错,下载下来听听。
问个菜鸟问题 ape 怎么在车上播放 用转换成mp3格式后刻盘吗?
竟然有菊花台?

看来有12首比较好听的,除了菊花台……
好 下了 道谢