孔泽尔指挥辛辛纳提通俗管弦乐团
Erich Kunzel/Cincinnati Pops Orchestra -《鬼屋》(CHILLER)[APE]

孔泽尔指挥辛辛纳提通俗管弦乐团<br />Erich Kunzel/Cincinnati Pops Orchestra -《鬼屋》(CHILLER)[APE]
  • 片  名  孔泽尔指挥辛辛纳提通俗管弦乐团
    Erich Kunzel/Cincinnati Pops Orchestra -《鬼屋》(CHILLER)[APE]
  • 简  介  发行时间: 1989年
  • 类  别  音乐
  • 小  类  古典音乐


  • 详细介绍简介: 专辑介绍:
    专辑名:《CHILLER》
    唱片公司:TELARC
    唱片编号:TELARC STEREO CD-80189
    录音制式:DDD STEREO
    这张名为《CHILLER》的唱片其实是曾经风靡一时的惊悚电影《鬼屋》的原声大碟,除了收录下电影中夸张而逼真的各类声音特效外,还有非常多与电影“魔鬼”主题有关的古典名曲、音乐剧序曲等。其中包括音乐剧大师安德鲁.劳伊德.韦伯的传世之作《歌剧媚影》的序曲、著名俄罗斯作曲家姆索尔斯基的交响诗《荒山之夜幻想曲》,法国作曲家圣桑所作的《骷髅之舞》以及柏辽兹、格里格等名家的作品片断。可以看到,无论作品的风格是古典还是现代,都围绕着唱片“魔鬼”的主题,所以营造出一种诡异、神秘的色彩。孔泽尔与辛辛纳提通俗管弦乐团在演艺古典作品的时候显然与其他国际级指挥家演绎的版本有一些差距,但是凭借着TELARC公司优秀的录音品质以及整张作品统一的风格,还是获得了很高的评价。

    请在晚上十一点至早上七点下载
  • 孔泽尔指挥辛辛纳提通俗管弦乐团<br />Erich Kunzel/Cincinnati Pops Orchestra -《鬼屋》(CHILLER)[APE]_large

精选评论

PERFORMER "Unknown Artist"
TITLE "孔泽尔指挥辛辛纳提通俗管弦乐团"
REM DISCID 1E0DA513
REM COMMENT ExactAudioCopy v0.95b1
FILE "辛辛纳提通俗管弦乐团.-.[鬼屋].专辑.(ape).ape" WAVE
TRACK 01 AUDIO
TITLE "Opening Sequence"
PERFORMER "孔泽尔指挥辛辛纳提通俗管弦乐团"
INDEX 01 00:00:00
TRACK 02 AUDIO
TITLE "Overture to The Phantom of the Opera"
PERFORMER "孔泽尔指挥辛辛纳提通俗管弦乐团"
INDEX 01 00:48:72
TRACK 03 AUDIO
TITLE "Night on Bald Mountain"
PERFORMER "孔泽尔指挥辛辛纳提通俗管弦乐团"
INDEX 00 03:01:47
INDEX 01 03:02:60
TRACK 04 AUDIO
TITLE "Danse Macabre"
PERFORMER "孔泽尔指挥辛辛纳提通俗管弦乐团"
INDEX 00 13:42:32
INDEX 01 13:45:35
TRACK 05 AUDIO
TITLE "March to the Scaffold from Symphonie fantastique"
PERFORMER "孔泽尔指挥辛辛纳提通俗管弦乐团"
INDEX 00 21:27:72
INDEX 01 21:31:25
TRACK 06 AUDIO
TITLE "Pandemonium from The Damnation of Faust"
PERFORMER "孔泽尔指挥辛辛纳提通俗管弦乐团"
INDEX 00 26:30:65
INDEX 01 26:34:52
TRACK 07 AUDIO
TITLE "In the Hall of the Mountain King from Peer Gynt"
PERFORMER "孔泽尔指挥辛辛纳提通俗管弦乐团"
INDEX 00 29:58:65
INDEX 01 30:02:02
TRACK 08 AUDIO
TITLE "Synthesizer Effects"
PERFORMER "孔泽尔指挥辛辛纳提通俗管弦乐团"
INDEX 00 32:32:72
INDEX 01 32:34:45
TRACK 09 AUDIO
TITLE "Theme from The Twilight Zone"
PERFORMER "孔泽尔指挥辛辛纳提通俗管弦乐团"
INDEX 01 33:26:60
TRACK 10 AUDIO
TITLE "The Bride of Frankenstein"
PERFORMER "孔泽尔指挥辛辛纳提通俗管弦乐团"
INDEX 00 34:15:00
INDEX 01 34:18:00
TRACK 11 AUDIO
TITLE "Sleigh Ride from The Devil and Daniel Webster"
PERFORMER "孔泽尔指挥辛辛纳提通俗管弦乐团"
INDEX 00 39:39:32
INDEX 01 39:42:34
TRACK 12 AUDIO
TITLE "Three Selections from Psycho(1)"
PERFORMER "孔泽尔指挥辛辛纳提通俗管弦乐团"
INDEX 00 41:35:25
INDEX 01 41:38:27
TRACK 13 AUDIO
TITLE "Three Selections from Psycho(2)"
PERFORMER "孔泽尔指挥辛辛纳提通俗管弦乐团"
INDEX 01 43:12:32
TRACK 14 AUDIO
TITLE "Three Selections from Psycho(3)"
PERFORMER "孔泽尔指挥辛辛纳提通俗管弦乐团"
INDEX 01 45:14:55
TRACK 15 AUDIO
TITLE "Overture to Sleuth"
PERFORMER "孔泽尔指挥辛辛纳提通俗管弦乐团"
INDEX 01 46:35:60
TRACK 16 AUDIO
TITLE "Television Noise"
PERFORMER "孔泽尔指挥辛辛纳提通俗管弦乐团"
INDEX 00 49:25:57
INDEX 01 49:29:25
TRACK 17 AUDIO
TITLE "The Light from Poltergeist"
PERFORMER "孔泽尔指挥辛辛纳提通俗管弦乐团"
INDEX 01 49:46:05
TRACK 18 AUDIO
TITLE "Super Sleuth from Without A Clue"
PERFORMER "孔泽尔指挥辛辛纳提通俗管弦乐团"
INDEX 00 52:25:47
INDEX 01 52:28:47
TRACK 19 AUDIO
TITLE "Funeral March of a Marionette(Theme from Alfred Hitchcock Presents)"
PERFORMER "孔泽尔指挥辛辛纳提通俗管弦乐团"
INDEX 00 54:33:12
INDEX 01 54:36:12
请R大以后不要偷懒,Cue文件不能用就不说了,
还全部是乱码!
缅怀大师
感谢楼上提供可用的CUE
cue怎么用不了啊.
谢谢,下下来了,不过要是标注一下,哪首分别选自那个名家之作就好了