《香格里拉主题曲》(Shangri-La)[OP Single - キミシニタモウコトナカレ][May'n][+Scans][TTA]

《香格里拉主题曲》(Shangri-La)[OP Single - キミシニタモウコトナカレ][May'n][+Scans][TTA]
  • 片  名  《香格里拉主题曲》(Shangri-La)[OP Single - キミシニタモウコトナカレ][May'n][+Scans][TTA]
  • 简  介  发行时间: 2009年05月06日对白语言: 日语文字语言: 日文
  • 类  别  动漫
  • 小  类  动漫周边


  • 详细介绍简介: 【Details】
    TVアニメ「シャングリ・ラ」OPテーマ: キミシニタモウコトナカレ/ May'n* 商品番号: VTCL-35070
    * メディア: マキシシングルCD
    * 組枚数: 1
    * 発売日: 2009/05/06
    * 価格: 1155円(税込)
    * 内容
    角川アニメ、春の一押し作品「シャングリ・ラ」のオープニングを飾るのは大ヒット連発中のMay'n!! ポルノグラフィティのプロデューサー本間昭光がプロデュース。カップリングはMay'nの作詞曲を収録。
    【Credits】
    May'n (アーティスト) 岩里祐穂 (作詞者) 
    本間昭光 (作曲者) 
    【TrackList】
    1. キミシニタモウコトナカレ
    2. M-Revolution
    3. キミシニタモウコトナカレ〔without May'n〕
    4. M-Revolution〔without May'n〕
    【Story】
    以不停暖化的世界为舞台,此时的日本东京已变成热带地区,打著东京再生计画的gov在进行森林化的同时,却让都市被森林逐渐侵蚀,因此成为难民的人数也逐渐增加。而故事便从身为反gov组织领导者的高中生女主角「国子」开始出发的近未来科幻小说作品。
  • 《香格里拉主题曲》(Shangri-La)[OP Single - キミシニタモウコトナカレ][May'n][+Scans][TTA]_large

精选评论

May'n?哦!岩里祐穂!
沙发~
等这个很久了,非常感谢楼主,顺便抢了沙发,呵呵
嗷嗷~~~等到了><
……这段时间出的OPED太多了。。我还是去买杂志好了。。
有没有MP3版本的啊...
此单曲大好!!!MAY'N最高><!!
終于盼來了趕緊收下.
好物 感谢发布
女王的歌最高,一定支持
REM GENRE Anime/Game
REM DATE 2009
REM DISCID 2503F204
REM COMMENT "ExactAudioCopy v0.99pb4"
PERFORMER "May'n"
TITLE "キミシニタモウコトナカレ"
FILE "May'n - キミシニタモウコトナカレ.tta" WAVE
TRACK 01 AUDIO
TITLE "キミシニタモウコトナカレ"
PERFORMER "May'n"
INDEX 01 00:00:00
TRACK 02 AUDIO
TITLE "M-Revolution"
PERFORMER "May'n"
INDEX 00 03:58:56
INDEX 01 04:01:40
TRACK 03 AUDIO
TITLE "キミシニタモウコトナカレ (without May'n)"
PERFORMER "May'n"
INDEX 00 08:22:67
INDEX 01 08:27:50
TRACK 04 AUDIO
TITLE "M-Revolution (without May'n)"
PERFORMER "May'n"
INDEX 00 12:26:07
INDEX 01 12:28:65
唉……支持! 强烈的支持!!!!
终于盼来了……还是希望有mp3的版本啊……
May'n!May'n!May'n!我喜欢!!!