《动物大会》(Animals United)[2D英语版][720x304][BDRip][AVI]

《动物大会》(Animals United)[2D英语版][720x304][BDRip][AVI]
  • 片  名  《动物大会》(Animals United)[2D英语版][720x304][BDRip][AVI]
  • 简  介  发行时间: 2010年语言: 英语
  • 类  别  动漫
  • 小  类  剧场动画


  • 详细介绍 简介: 【首播时间】 2010年
    【字幕制作】 暂无,搜索字幕
    【内容介绍】
     一群动物正在等待他们每年赖以生存的食物和水,然而却发现人类要在他们的栖居地修建一个度假胜地,二者之间的矛盾该如何解决呢?
    【STAFF】
    导演:雷恩哈德·克洛泽 Reinhard Klooss
    胡戈尔·坦普 Holger Tappe
    【CAST】
    克里斯托弗·玛利亚·赫斯特 Christoph Maria Herbst ....Hahn Charles (voice)
    巴斯蒂安·帕斯特科瓦 Bastian Pastewka ....Elefantenkuh Angie (voice)
    奥利维亚·卡尔科夫 Oliver Kalkofe ....Hoteldirektor Smith (voice)
    托马斯·弗里斯奇 Thomas Fritsch ....L?we Sokrates (voice)

    代码Ripper ...........: IMAGiNE IMDB Rating.......:4.7/10
    Video Codec.......: XVID Release Date......:21/04/11
    Audio Codec.......:AC3 Theatre Date......:N/A
    Audio Bitrate.....:448 Runtime.......:1h 33mn
    Subtitles.........:NIL Language..........:ENGLISH
    Resolution...... 720 x 304 IMDb URL.......... http://www.imdb.com/title/tt1620449/
    DETAILS:
    Video
    ID : 0
    Format : MPEG-4 Visual
    Format profile : Advanced Simple@L5
    Format settings, BVOP : 2
    Format settings, QPel : No
    Format settings, GMC : No warppoints
    Format settings, Matrix : Default (H.263)
    Muxing mode : Packed bitstream
    Codec ID : XVID
    Codec ID/Hint : XviD
    Duration : 1h 33mn
    Bit rate : 1 955 Kbps
    Width : 720 pixels
    Height : 304 pixels
    Display aspect ratio : 2.35:1
    Frame rate : 23.976 fps
    Color space : YUV
    Chroma subsampling : 4:2:0
    Bit depth : 8 bits
    Scan type : Progressive
    Compression mode : Lossy
    Bits/(Pixel*Frame) : 0.373
    Stream size : 1.27 GiB (81%)
    Writing library : XviD 1.1.2 (UTC 2006-11-01)
    Audio
    ID : 1
    Format : AC-3
    Format/Info : Audio Coding 3
    Mode extension : CM (complete main)
    Codec ID : 2000
    Duration : 1h 33mn
    Bit rate mode : Constant
    Bit rate : 448 Kbps
    Channel(s) : 6 channels
    Channel positions : Front: L C R, Side: L R, LFE
    Sampling rate : 48.0 KHz
    Bit depth : 16 bits
    Compression mode : Lossy
    Stream size : 298 MiB (19%)
    Alignment : Aligned on interleaves
    Interleave, duration : 42 ms (1.00 video frame)
    SOURCES:
    VIDEO: ......... Die Konferenz der Tiere 1080p BDRiP Thanx
    AUDIO: ......... Thanx Matey
    NOTES:
    IMAGiNE bringing you another release..........
    Animals United
    Not much to say here, this was a straight forward rip here source was very nice so....
    Audio is nice as well
    Enjoy Folks!
  • 《动物大会》(Animals United)[2D英语版][720x304][BDRip][AVI]_large

精选评论

还没人评论呢^^~赶紧抢沙发吧!

相关资源